[更早] [欧美] [动作] [BD-Remux] 黑衣人 Men.in.Black.1997.25th.Anniversary.Edition.2160p.BluRay.REMUX.HEVC.DTS-HD.MA.TrueHD.7.1.Atmos-FGT 53.91 GB

uump4 2月前

悠悠MP4_MP4电影下载_黑衣人 Men.in.Black.1997.25th.Anniversary.Edition.2160p.BluRay.REMUX.HEVC.DTS-HD.MA.TrueHD.7.1.Atmos-FGT 53.91 GB

◎片  名 黑衣人 Men in Black / 黑超特警组(港) / MIB星际战警(台) / MIB
◎年  代 1997
◎产  地 美国
◎类  别 喜剧 / 动作 / 科幻
◎语  言 英语 / 西班牙语
◎上映日期 1997-07-02(美国)
◎IMDb评分  7.3/10 from 564825 users
◎IMDb链接  https://www.imdb.com/title/tt0119654/
◎豆瓣评分 8.2/10 from 317282 users
◎豆瓣链接 https://movie.douban.com/subject/1301445/
◎片  长 98分钟
◎导  演 巴里·索南菲尔德 Barry Sonnenfeld
◎编  剧 艾德·索罗门 Ed Solomon
      劳威尔·坎宁安 Lowell Cunningham
◎主  演 威尔·史密斯 Will Smith
      汤米·李·琼斯 Tommy Lee Jones
      琳达·费奥伦蒂诺 Linda Fiorentino
      文森特·多诺费奥 Vincent D'Onofrio
      雷普·汤恩 Rip Torn
      托尼·夏尔赫布 Tony Shalhoub
      Mushu Mushu
      史蒂文·斯皮尔伯格 Steven Spielberg
      丹尼·德维托 Danny DeVito
      迈克·努斯鲍姆 Mike Nussbaum
      理查德-汉密尔顿 Richard Hamilton
      查尔斯·C·史蒂文森 Charles C. Stevenson Jr.
      弗瑞德里克·林恩 Fredric Lehne
      卡雷尔·斯特鲁基 Carel Struycken
      强·格瑞斯 Jon Gries
      乔治·卢卡斯 George Lucas
      大卫·克罗斯 David Cross
      希博汗·法隆 Siobhan Fallon

◎简  介

  地球并不只是人类的天下,其实有1500名外星人生活中我们当中,而星际移民局则处理和外星人相关的事情。
 纽约普通警察爱德华兹(威尔·史密斯 饰)因缘际会之下加入了这一组织,成为MIB的一员,代号J,从此没有名字、没有身份,成为特警K(汤姆·李·琼斯 饰)的搭档。
 J应对的 第一起事件就是虫族的入侵。亚基伦王子罗斯伯在地球被虫族杀害,而他随身携带的“银河系”——宇宙次原子能源的最好来源也失踪了,若虫族找到,将给亚基伦人带来毁灭性的打击;亚基伦人发出最后通牒,如果地球人不能在一个小时之内交出“银河系”,他们就摧毁地球。
 为了地球的安全,K和J不得不挺身而出。

◎获奖情况

  第70届奥斯卡金像奖 (1998)
  最佳艺术指导(提名)
  谢丽尔·卡拉西克 / 博·维尔奇最佳化妆
  里克·贝克 / 戴维·勒罗伊·安德森音乐/喜剧片最佳原创配乐(提名)
  丹尼·艾夫曼

  第55届金球奖 (1998)
  电影类 最佳音乐/喜剧片(提名)



Video
ID        : 1
ID in the original source medium  : 4113 (0x1011)
Format       : HEVC
Format/Info      : High Efficiency Video Coding
Format profile      : Main [email protected]@High
HDR format       : Dolby Vision, Version 1.0, dvhe.07.06, BL+EL+RPU, Blu-ray compatible / SMPTE ST 2086, HDR10 compatible
Codec ID       : V_MPEGH/ISO/HEVC
Duration       : 1 h 37 min
Bit rate       : 52.1 Mb/s
Width        : 3 840 pixels
Height       : 2 160 pixels
Display aspect ratio     : 16:9
Frame rate mode      : Constant
Frame rate       : 23.976 (24000/1001) FPS
Color space      : YUV
Chroma subsampling     : 4:2:0 (Type 2)
Bit depth       : 10 bits
Bits/(Pixel*Frame)     : 0.262
Stream size      : 35.6 GiB (66%)
Language       : English
Default       : No
Forced       : No
Color range      : Limited
Color primaries      : BT.2020
Transfer characteristics    : PQ
Matrix coefficients     : BT.2020 non-constant
Mastering display color primaries  : Display P3
Mastering display luminance   : min: 0.0050 cd/m2, max: 4000 cd/m2
Maximum Content Light Level   : 4391 cd/m2
Maximum Frame-Average Light Level  : 701 cd/m2
Original source medium    : Blu-ray

Audio #1
ID        : 2
ID in the original source medium  : 4352 (0x1100)
Format       : MLP FBA 16-ch
Format/Info      : Meridian Lossless Packing FBA with 16-channel presentation
Commercial name      : Dolby TrueHD with Dolby Atmos
Codec ID       : A_TRUEHD
Duration       : 1 h 37 min
Bit rate mode      : Variable
Bit rate       : 5 779 kb/s
Maximum bit rate     : 8 544 kb/s
Channel(s)       : 8 channels
Channel layout      : L R C LFE Ls Rs Lb Rb
Sampling rate      : 48.0 kHz
Frame rate       : 1 200.000 FPS (40 SPF)
Bit depth       : 24 bits
Compression mode     : Lossless
Stream size      : 3.95 GiB (7%)
Title        : TrueHD 7.1 Atmos
Language       : English
Default       : Yes
Forced       : No
Original source medium    : Blu-ray
Number of dynamic objects    : 11
Bed channel count     : 1 channel
Bed channel configuration    : LFE

Audio #2
ID        : 3
Format       : DTS XLL
Format/Info      : Digital Theater Systems
Commercial name      : DTS-HD Master Audio
Codec ID       : A_DTS
Duration       : 1 h 37 min
Bit rate mode      : Variable
Bit rate       : 4 471 kb/s
Channel(s)       : 8 channels
Channel layout      : C L R LFE Lb Rb Lss Rss
Sampling rate      : 48.0 kHz
Frame rate       : 93.750 FPS (512 SPF)
Bit depth       : 24 bits
Compression mode     : Lossless
Stream size      : 3.06 GiB (6%)
Title        : DTS-HD MA 7.1
Language       : English
Default       : No
Forced       : No

Audio #3
ID        : 4
ID in the original source medium  : 4352 (0x1100)
Format       : AC-3
Format/Info      : Audio Coding 3
Commercial name      : Dolby Digital
Codec ID       : A_AC3
Duration       : 1 h 37 min
Bit rate mode      : Constant
Bit rate       : 640 kb/s
Channel(s)       : 6 channels
Channel layout      : L R C LFE Ls Rs
Sampling rate      : 48.0 kHz
Frame rate       : 31.250 FPS (1536 SPF)
Compression mode     : Lossy
Stream size      : 448 MiB (1%)
Title        : DD 5.1
Language       : English
Service kind      : Complete Main
Default       : No
Forced       : No
Original source medium    : Blu-ray

Audio #4
ID        : 5
ID in the original source medium  : 4354 (0x1102)
Format       : AC-3
Format/Info      : Audio Coding 3
Commercial name      : Dolby Digital
Codec ID       : A_AC3
Duration       : 1 h 37 min
Bit rate mode      : Constant
Bit rate       : 640 kb/s
Channel(s)       : 6 channels
Channel layout      : L R C LFE Ls Rs
Sampling rate      : 48.0 kHz
Frame rate       : 31.250 FPS (1536 SPF)
Compression mode     : Lossy
Stream size      : 448 MiB (1%)
Title        : DD 5.1
Language       : Czech
Service kind      : Complete Main
Default       : No
Forced       : No
Original source medium    : Blu-ray

Audio #5
ID        : 6
ID in the original source medium  : 4355 (0x1103)
Format       : AC-3
Format/Info      : Audio Coding 3
Commercial name      : Dolby Digital
Codec ID       : A_AC3
Duration       : 1 h 37 min
Bit rate mode      : Constant
Bit rate       : 640 kb/s
Channel(s)       : 6 channels
Channel layout      : L R C LFE Ls Rs
Sampling rate      : 48.0 kHz
Frame rate       : 31.250 FPS (1536 SPF)
Compression mode     : Lossy
Stream size      : 448 MiB (1%)
Title        : DD 5.1
Language       : French
Service kind      : Complete Main
Default       : No
Forced       : No
Original source medium    : Blu-ray

Audio #6
ID        : 7
ID in the original source medium  : 4356 (0x1104)
Format       : DTS XLL
Format/Info      : Digital Theater Systems
Commercial name      : DTS-HD Master Audio
Codec ID       : A_DTS
Duration       : 1 h 37 min
Bit rate mode      : Variable
Bit rate       : 2 327 kb/s
Channel(s)       : 6 channels
Channel layout      : C L R Ls Rs LFE
Sampling rate      : 48.0 kHz
Frame rate       : 93.750 FPS (512 SPF)
Bit depth       : 16 bits
Compression mode     : Lossless
Stream size      : 1.59 GiB (3%)
Title        : DTS-HD MA 5.1
Language       : French
Default       : No
Forced       : No
Original source medium    : Blu-ray

Audio #7
ID        : 8
ID in the original source medium  : 4357 (0x1105)
Format       : DTS XLL
Format/Info      : Digital Theater Systems
Commercial name      : DTS-HD Master Audio
Codec ID       : A_DTS
Duration       : 1 h 37 min
Bit rate mode      : Variable
Bit rate       : 2 256 kb/s
Channel(s)       : 6 channels
Channel layout      : C L R Ls Rs LFE
Sampling rate      : 48.0 kHz
Frame rate       : 93.750 FPS (512 SPF)
Bit depth       : 16 bits
Compression mode     : Lossless
Stream size      : 1.54 GiB (3%)
Title        : DTS-HD MA 5.1
Language       : German
Default       : No
Forced       : No
Original source medium    : Blu-ray

Audio #8
ID        : 9
ID in the original source medium  : 4358 (0x1106)
Format       : AC-3
Format/Info      : Audio Coding 3
Commercial name      : Dolby Digital
Codec ID       : A_AC3
Duration       : 1 h 37 min
Bit rate mode      : Constant
Bit rate       : 640 kb/s
Channel(s)       : 6 channels
Channel layout      : L R C LFE Ls Rs
Sampling rate      : 48.0 kHz
Frame rate       : 31.250 FPS (1536 SPF)
Compression mode     : Lossy
Stream size      : 448 MiB (1%)
Title        : DD 5.1
Language       : Hungarian
Service kind      : Complete Main
Default       : No
Forced       : No
Original source medium    : Blu-ray

Audio #9
ID        : 10
ID in the original source medium  : 4359 (0x1107)
Format       : DTS XLL
Format/Info      : Digital Theater Systems
Commercial name      : DTS-HD Master Audio
Codec ID       : A_DTS
Duration       : 1 h 37 min
Bit rate mode      : Variable
Bit rate       : 2 256 kb/s
Channel(s)       : 6 channels
Channel layout      : C L R Ls Rs LFE
Sampling rate      : 48.0 kHz
Frame rate       : 93.750 FPS (512 SPF)
Bit depth       : 16 bits
Compression mode     : Lossless
Stream size      : 1.54 GiB (3%)
Title        : DTS-HD MA 5.1
Language       : Italian
Default       : No
Forced       : No
Original source medium    : Blu-ray

Audio #10
ID        : 11
ID in the original source medium  : 4360 (0x1108)
Format       : DTS XLL
Format/Info      : Digital Theater Systems
Commercial name      : DTS-HD Master Audio
Codec ID       : A_DTS
Duration       : 1 h 37 min
Bit rate mode      : Variable
Bit rate       : 2 411 kb/s
Channel(s)       : 6 channels
Channel layout      : C L R Ls Rs LFE
Sampling rate      : 48.0 kHz
Frame rate       : 93.750 FPS (512 SPF)
Bit depth       : 16 bits
Compression mode     : Lossless
Stream size      : 1.65 GiB (3%)
Title        : DTS-HD MA 5.1
Language       : Japanese
Default       : No
Forced       : No
Original source medium    : Blu-ray

Audio #11
ID        : 12
ID in the original source medium  : 4361 (0x1109)
Format       : AC-3
Format/Info      : Audio Coding 3
Commercial name      : Dolby Digital
Codec ID       : A_AC3
Duration       : 1 h 37 min
Bit rate mode      : Constant
Bit rate       : 640 kb/s
Channel(s)       : 6 channels
Channel layout      : L R C LFE Ls Rs
Sampling rate      : 48.0 kHz
Frame rate       : 31.250 FPS (1536 SPF)
Compression mode     : Lossy
Stream size      : 448 MiB (1%)
Title        : DD 5.1
Language       : Polish
Service kind      : Complete Main
Default       : No
Forced       : No
Original source medium    : Blu-ray

Audio #12
ID        : 13
ID in the original source medium  : 4362 (0x110A)
Format       : DTS XLL
Format/Info      : Digital Theater Systems
Commercial name      : DTS-HD Master Audio
Codec ID       : A_DTS
Duration       : 1 h 37 min
Bit rate mode      : Variable
Bit rate       : 2 273 kb/s
Channel(s)       : 6 channels
Channel layout      : C L R Ls Rs LFE
Sampling rate      : 48.0 kHz
Frame rate       : 93.750 FPS (512 SPF)
Bit depth       : 16 bits
Compression mode     : Lossless
Stream size      : 1.56 GiB (3%)
Title        : DTS-HD MA 5.1
Language       : Spanish
Default       : No
Forced       : No
Original source medium    : Blu-ray

Audio #13
ID        : 14
ID in the original source medium  : 4363 (0x110B)
Format       : AC-3
Format/Info      : Audio Coding 3
Commercial name      : Dolby Digital
Codec ID       : A_AC3
Duration       : 1 h 37 min
Bit rate mode      : Constant
Bit rate       : 640 kb/s
Channel(s)       : 6 channels
Channel layout      : L R C LFE Ls Rs
Sampling rate      : 48.0 kHz
Frame rate       : 31.250 FPS (1536 SPF)
Compression mode     : Lossy
Stream size      : 448 MiB (1%)
Title        : DD 5.1
Language       : Spanish
Service kind      : Complete Main
Default       : No
Forced       : No
Original source medium    : Blu-ray

Audio #14
ID        : 15
ID in the original source medium  : 4364 (0x110C)
Format       : AC-3
Format/Info      : Audio Coding 3
Commercial name      : Dolby Digital
Codec ID       : A_AC3
Duration       : 1 h 37 min
Bit rate mode      : Constant
Bit rate       : 640 kb/s
Channel(s)       : 6 channels
Channel layout      : L R C LFE Ls Rs
Sampling rate      : 48.0 kHz
Frame rate       : 31.250 FPS (1536 SPF)
Compression mode     : Lossy
Stream size      : 448 MiB (1%)
Title        : DD 5.1
Language       : Thai
Service kind      : Complete Main
Default       : No
Forced       : No
Original source medium    : Blu-ray

Text #1
ID        : 16
Format       : UTF-8
Codec ID       : S_TEXT/UTF8
Codec ID/Info      : UTF-8 Plain Text
Duration       : 1 h 32 min
Bit rate       : 64 b/s
Frame rate       : 0.200 FPS
Count of elements     : 1109
Stream size      : 44.0 KiB (0%)
Language       : English
Default       : Yes
Forced       : No

Text #2
ID        : 17
Format       : UTF-8
Codec ID       : S_TEXT/UTF8
Codec ID/Info      : UTF-8 Plain Text
Duration       : 1 h 35 min
Bit rate       : 68 b/s
Frame rate       : 0.219 FPS
Count of elements     : 1252
Stream size      : 47.7 KiB (0%)
Title        : SDH
Language       : English
Default       : No
Forced       : No

Text #3
ID        : 18
ID in the original source medium  : 4769 (0x12A1)
Format       : PGS
Muxing mode      : zlib
Codec ID       : S_HDMV/PGS
Codec ID/Info      : Picture based subtitle format used on BDs/HD-DVDs
Duration       : 1 h 27 min
Bit rate       : 35.8 kb/s
Frame rate       : 0.395 FPS
Count of elements     : 2068
Stream size      : 22.3 MiB (0%)
Language       : English
Default       : No
Forced       : No
Original source medium    : Blu-ray

Text #4
ID        : 19
ID in the original source medium  : 4768 (0x12A0)
Format       : PGS
Muxing mode      : zlib
Codec ID       : S_HDMV/PGS
Codec ID/Info      : Picture based subtitle format used on BDs/HD-DVDs
Duration       : 1 h 35 min
Bit rate       : 39.6 kb/s
Frame rate       : 0.446 FPS
Count of elements     : 2555
Stream size      : 27.0 MiB (0%)
Title        : SDH
Language       : English
Default       : No
Forced       : No
Original source medium    : Blu-ray

Text #5
ID        : 20
ID in the original source medium  : 4771 (0x12A3)
Format       : PGS
Muxing mode      : zlib
Codec ID       : S_HDMV/PGS
Codec ID/Info      : Picture based subtitle format used on BDs/HD-DVDs
Duration       : 1 h 27 min
Bit rate       : 35.8 kb/s
Frame rate       : 0.395 FPS
Count of elements     : 2068
Stream size      : 22.3 MiB (0%)
Language       : English
Default       : No
Forced       : No
Original source medium    : Blu-ray

Text #6
ID        : 21
ID in the original source medium  : 4770 (0x12A2)
Format       : PGS
Muxing mode      : zlib
Codec ID       : S_HDMV/PGS
Codec ID/Info      : Picture based subtitle format used on BDs/HD-DVDs
Duration       : 1 h 35 min
Bit rate       : 39.6 kb/s
Frame rate       : 0.446 FPS
Count of elements     : 2555
Stream size      : 27.0 MiB (0%)
Title        : SDH
Language       : English
Default       : No
Forced       : No
Original source medium    : Blu-ray

Text #7
ID        : 22
ID in the original source medium  : 4772 (0x12A4)
Format       : PGS
Muxing mode      : zlib
Codec ID       : S_HDMV/PGS
Codec ID/Info      : Picture based subtitle format used on BDs/HD-DVDs
Duration       : 1 h 27 min
Bit rate       : 18.4 kb/s
Frame rate       : 0.416 FPS
Count of elements     : 2176
Stream size      : 11.5 MiB (0%)
Language       : Arabic
Default       : No
Forced       : No
Original source medium    : Blu-ray

Text #8
ID        : 23
ID in the original source medium  : 4773 (0x12A5)
Format       : PGS
Muxing mode      : zlib
Codec ID       : S_HDMV/PGS
Codec ID/Info      : Picture based subtitle format used on BDs/HD-DVDs
Duration       : 1 h 27 min
Bit rate       : 27.0 kb/s
Frame rate       : 0.422 FPS
Count of elements     : 2210
Stream size      : 16.8 MiB (0%)
Language       : Chinese
Default       : No
Forced       : No
Original source medium    : Blu-ray

Text #9
ID        : 24
ID in the original source medium  : 4774 (0x12A6)
Format       : PGS
Muxing mode      : zlib
Codec ID       : S_HDMV/PGS
Codec ID/Info      : Picture based subtitle format used on BDs/HD-DVDs
Duration       : 1 h 27 min
Bit rate       : 28.8 kb/s
Frame rate       : 0.411 FPS
Count of elements     : 2152
Stream size      : 18.0 MiB (0%)
Language       : Chinese
Default       : No
Forced       : No
Original source medium    : Blu-ray

Text #10
ID        : 25
ID in the original source medium  : 4775 (0x12A7)
Format       : PGS
Muxing mode      : zlib
Codec ID       : S_HDMV/PGS
Codec ID/Info      : Picture based subtitle format used on BDs/HD-DVDs
Duration       : 1 h 27 min
Bit rate       : 29.5 kb/s
Frame rate       : 0.415 FPS
Count of elements     : 2172
Stream size      : 18.4 MiB (0%)
Language       : Czech
Default       : No
Forced       : No
Original source medium    : Blu-ray

Text #11
ID        : 26
ID in the original source medium  : 4775 (0x12A7)
Format       : PGS
Muxing mode      : zlib
Codec ID       : S_HDMV/PGS
Codec ID/Info      : Picture based subtitle format used on BDs/HD-DVDs
Duration       : 1 h 26 min
Bit rate       : 1 376 b/s
Frame rate       : 0.021 FPS
Count of elements     : 106
Stream size      : 868 KiB (0%)
Title        : FORCED
Language       : Czech
Default       : No
Forced       : No
Original source medium    : Blu-ray

Text #12
ID        : 27
ID in the original source medium  : 4776 (0x12A8)
Format       : PGS
Muxing mode      : zlib
Codec ID       : S_HDMV/PGS
Codec ID/Info      : Picture based subtitle format used on BDs/HD-DVDs
Duration       : 1 h 27 min
Bit rate       : 27.2 kb/s
Frame rate       : 0.288 FPS
Count of elements     : 1507
Stream size      : 17.0 MiB (0%)
Language       : Danish
Default       : No
Forced       : No
Original source medium    : Blu-ray

Text #13
ID        : 28
ID in the original source medium  : 4777 (0x12A9)
Format       : PGS
Muxing mode      : zlib
Codec ID       : S_HDMV/PGS
Codec ID/Info      : Picture based subtitle format used on BDs/HD-DVDs
Duration       : 1 h 27 min
Bit rate       : 27.2 kb/s
Frame rate       : 0.290 FPS
Count of elements     : 1519
Stream size      : 17.0 MiB (0%)
Language       : Dutch
Default       : No
Forced       : No
Original source medium    : Blu-ray

Text #14
ID        : 29
ID in the original source medium  : 4778 (0x12AA)
Format       : PGS
Muxing mode      : zlib
Codec ID       : S_HDMV/PGS
Codec ID/Info      : Picture based subtitle format used on BDs/HD-DVDs
Duration       : 1 h 27 min
Bit rate       : 26.8 kb/s
Frame rate       : 0.281 FPS
Count of elements     : 1473
Stream size      : 16.7 MiB (0%)
Language       : Finnish
Default       : No
Forced       : No
Original source medium    : Blu-ray

Text #15
ID        : 30
ID in the original source medium  : 4779 (0x12AB)
Format       : PGS
Muxing mode      : zlib
Codec ID       : S_HDMV/PGS
Codec ID/Info      : Picture based subtitle format used on BDs/HD-DVDs
Duration       : 1 h 36 min
Bit rate       : 24.7 kb/s
Frame rate       : 0.373 FPS
Count of elements     : 2170
Stream size      : 17.1 MiB (0%)
Language       : French
Default       : No
Forced       : No
Original source medium    : Blu-ray

Text #16
ID        : 31
ID in the original source medium  : 4779 (0x12AB)
Format       : PGS
Muxing mode      : zlib
Codec ID       : S_HDMV/PGS
Codec ID/Info      : Picture based subtitle format used on BDs/HD-DVDs
Duration       : 1 h 26 min
Bit rate       : 1 155 b/s
Frame rate       : 0.019 FPS
Count of elements     : 98
Stream size      : 729 KiB (0%)
Title        : FORCED
Language       : French
Default       : No
Forced       : No
Original source medium    : Blu-ray

Text #17
ID        : 32
ID in the original source medium  : 4780 (0x12AC)
Format       : PGS
Muxing mode      : zlib
Codec ID       : S_HDMV/PGS
Codec ID/Info      : Picture based subtitle format used on BDs/HD-DVDs
Duration       : 1 h 27 min
Bit rate       : 37.5 kb/s
Frame rate       : 0.400 FPS
Count of elements     : 2094
Stream size      : 23.4 MiB (0%)
Language       : German
Default       : No
Forced       : No
Original source medium    : Blu-ray

Text #18
ID        : 33
ID in the original source medium  : 4780 (0x12AC)
Format       : PGS
Muxing mode      : zlib
Codec ID       : S_HDMV/PGS
Codec ID/Info      : Picture based subtitle format used on BDs/HD-DVDs
Duration       : 1 h 26 min
Bit rate       : 1 526 b/s
Frame rate       : 0.020 FPS
Count of elements     : 102
Stream size      : 962 KiB (0%)
Title        : FORCED
Language       : German
Default       : No
Forced       : No
Original source medium    : Blu-ray

Text #19
ID        : 34
ID in the original source medium  : 4781 (0x12AD)
Format       : PGS
Muxing mode      : zlib
Codec ID       : S_HDMV/PGS
Codec ID/Info      : Picture based subtitle format used on BDs/HD-DVDs
Duration       : 1 h 27 min
Bit rate       : 31.7 kb/s
Frame rate       : 0.411 FPS
Count of elements     : 2168
Stream size      : 19.9 MiB (0%)
Language       : Greek
Default       : No
Forced       : No
Original source medium    : Blu-ray

Text #20
ID        : 35
ID in the original source medium  : 4782 (0x12AE)
Format       : PGS
Muxing mode      : zlib
Codec ID       : S_HDMV/PGS
Codec ID/Info      : Picture based subtitle format used on BDs/HD-DVDs
Duration       : 1 h 27 min
Bit rate       : 28.3 kb/s
Frame rate       : 0.422 FPS
Count of elements     : 2210
Stream size      : 17.7 MiB (0%)
Language       : Hungarian
Default       : No
Forced       : No
Original source medium    : Blu-ray

Text #21
ID        : 36
ID in the original source medium  : 4782 (0x12AE)
Format       : PGS
Muxing mode      : zlib
Codec ID       : S_HDMV/PGS
Codec ID/Info      : Picture based subtitle format used on BDs/HD-DVDs
Duration       : 1 h 26 min
Bit rate       : 1 570 b/s
Frame rate       : 0.025 FPS
Count of elements     : 130
Stream size      : 990 KiB (0%)
Title        : FORCED
Language       : Hungarian
Default       : No
Forced       : No
Original source medium    : Blu-ray

Text #22
ID        : 37
ID in the original source medium  : 4783 (0x12AF)
Format       : PGS
Muxing mode      : zlib
Codec ID       : S_HDMV/PGS
Codec ID/Info      : Picture based subtitle format used on BDs/HD-DVDs
Duration       : 1 h 27 min
Bit rate       : 28.3 kb/s
Frame rate       : 0.432 FPS
Count of elements     : 2260
Stream size      : 17.7 MiB (0%)
Language       : Italian
Default       : No
Forced       : No
Original source medium    : Blu-ray

Text #23
ID        : 38
ID in the original source medium  : 4783 (0x12AF)
Format       : PGS
Muxing mode      : zlib
Codec ID       : S_HDMV/PGS
Codec ID/Info      : Picture based subtitle format used on BDs/HD-DVDs
Duration       : 1 h 26 min
Bit rate       : 1 171 b/s
Frame rate       : 0.019 FPS
Count of elements     : 96
Stream size      : 739 KiB (0%)
Title        : FORCED
Language       : Italian
Default       : No
Forced       : No
Original source medium    : Blu-ray

Text #24
ID        : 39
ID in the original source medium  : 4784 (0x12B0)
Format       : PGS
Muxing mode      : zlib
Codec ID       : S_HDMV/PGS
Codec ID/Info      : Picture based subtitle format used on BDs/HD-DVDs
Duration       : 1 h 34 min
Bit rate       : 22.0 kb/s
Frame rate       : 0.370 FPS
Count of elements     : 2105
Stream size      : 14.9 MiB (0%)
Language       : Japanese
Default       : No
Forced       : No
Original source medium    : Blu-ray

Text #25
ID        : 40
ID in the original source medium  : 4785 (0x12B1)
Format       : PGS
Muxing mode      : zlib
Codec ID       : S_HDMV/PGS
Codec ID/Info      : Picture based subtitle format used on BDs/HD-DVDs
Duration       : 1 h 36 min
Bit rate       : 20.5 kb/s
Frame rate       : 0.388 FPS
Count of elements     : 2258
Stream size      : 14.2 MiB (0%)
Language       : Korean
Default       : No
Forced       : No
Original source medium    : Blu-ray

Text #26
ID        : 41
ID in the original source medium  : 4786 (0x12B2)
Format       : PGS
Muxing mode      : zlib
Codec ID       : S_HDMV/PGS
Codec ID/Info      : Picture based subtitle format used on BDs/HD-DVDs
Duration       : 1 h 27 min
Bit rate       : 25.4 kb/s
Frame rate       : 0.286 FPS
Count of elements     : 1495
Stream size      : 15.8 MiB (0%)
Language       : Norwegian
Default       : No
Forced       : No
Original source medium    : Blu-ray

Text #27
ID        : 42
ID in the original source medium  : 4787 (0x12B3)
Format       : PGS
Muxing mode      : zlib
Codec ID       : S_HDMV/PGS
Codec ID/Info      : Picture based subtitle format used on BDs/HD-DVDs
Duration       : 1 h 27 min
Bit rate       : 26.8 kb/s
Frame rate       : 0.387 FPS
Count of elements     : 2026
Stream size      : 16.7 MiB (0%)
Language       : Polish
Default       : No
Forced       : No
Original source medium    : Blu-ray

Text #28
ID        : 43
ID in the original source medium  : 4787 (0x12B3)
Format       : PGS
Muxing mode      : zlib
Codec ID       : S_HDMV/PGS
Codec ID/Info      : Picture based subtitle format used on BDs/HD-DVDs
Duration       : 1 h 26 min
Bit rate       : 1 102 b/s
Frame rate       : 0.020 FPS
Count of elements     : 102
Stream size      : 695 KiB (0%)
Title        : FORCED
Language       : Polish
Default       : No
Forced       : No
Original source medium    : Blu-ray

Text #29
ID        : 44
ID in the original source medium  : 4788 (0x12B4)
Format       : PGS
Muxing mode      : zlib
Codec ID       : S_HDMV/PGS
Codec ID/Info      : Picture based subtitle format used on BDs/HD-DVDs
Duration       : 1 h 29 min
Bit rate       : 31.7 kb/s
Frame rate       : 0.412 FPS
Count of elements     : 2204
Stream size      : 20.2 MiB (0%)
Language       : Portuguese
Default       : No
Forced       : No
Original source medium    : Blu-ray

Text #30
ID        : 45
ID in the original source medium  : 4789 (0x12B5)
Format       : PGS
Muxing mode      : zlib
Codec ID       : S_HDMV/PGS
Codec ID/Info      : Picture based subtitle format used on BDs/HD-DVDs
Duration       : 1 h 29 min
Bit rate       : 34.3 kb/s
Frame rate       : 0.418 FPS
Count of elements     : 2238
Stream size      : 21.9 MiB (0%)
Language       : Portuguese
Default       : No
Forced       : No
Original source medium    : Blu-ray

Text #31
ID        : 46
ID in the original source medium  : 4790 (0x12B6)
Format       : PGS
Muxing mode      : zlib
Codec ID       : S_HDMV/PGS
Codec ID/Info      : Picture based subtitle format used on BDs/HD-DVDs
Duration       : 1 h 29 min
Bit rate       : 29.8 kb/s
Frame rate       : 0.416 FPS
Count of elements     : 2226
Stream size      : 19.1 MiB (0%)
Language       : Romanian
Default       : No
Forced       : No
Original source medium    : Blu-ray

Text #32
ID        : 47
ID in the original source medium  : 4791 (0x12B7)
Format       : PGS
Muxing mode      : zlib
Codec ID       : S_HDMV/PGS
Codec ID/Info      : Picture based subtitle format used on BDs/HD-DVDs
Duration       : 1 h 34 min
Bit rate       : 30.0 kb/s
Frame rate       : 0.381 FPS
Count of elements     : 2172
Stream size      : 20.4 MiB (0%)
Language       : Slovak
Default       : No
Forced       : No
Original source medium    : Blu-ray

Text #33
ID        : 48
ID in the original source medium  : 4792 (0x12B8)
Format       : PGS
Muxing mode      : zlib
Codec ID       : S_HDMV/PGS
Codec ID/Info      : Picture based subtitle format used on BDs/HD-DVDs
Duration       : 1 h 29 min
Bit rate       : 26.4 kb/s
Frame rate       : 0.410 FPS
Count of elements     : 2194
Stream size      : 16.9 MiB (0%)
Language       : Spanish
Default       : No
Forced       : No
Original source medium    : Blu-ray

Text #34
ID        : 49
ID in the original source medium  : 4792 (0x12B8)
Format       : PGS
Muxing mode      : zlib
Codec ID       : S_HDMV/PGS
Codec ID/Info      : Picture based subtitle format used on BDs/HD-DVDs
Duration       : 1 h 26 min
Bit rate       : 915 b/s
Frame rate       : 0.015 FPS
Count of elements     : 76
Stream size      : 577 KiB (0%)
Title        : FORCED
Language       : Spanish
Default       : No
Forced       : No
Original source medium    : Blu-ray

Text #35
ID        : 50
ID in the original source medium  : 4793 (0x12B9)
Format       : PGS
Muxing mode      : zlib
Codec ID       : S_HDMV/PGS
Codec ID/Info      : Picture based subtitle format used on BDs/HD-DVDs
Duration       : 1 h 29 min
Bit rate       : 33.4 kb/s
Frame rate       : 0.404 FPS
Count of elements     : 2162
Stream size      : 21.3 MiB (0%)
Language       : Spanish
Default       : No
Forced       : No
Original source medium    : Blu-ray

Text #36
ID        : 51
ID in the original source medium  : 4793 (0x12B9)
Format       : PGS
Muxing mode      : zlib
Codec ID       : S_HDMV/PGS
Codec ID/Info      : Picture based subtitle format used on BDs/HD-DVDs
Duration       : 1 h 28 min
Bit rate       : 1 437 b/s
Frame rate       : 0.018 FPS
Count of elements     : 98
Stream size      : 934 KiB (0%)
Title        : FORCED
Language       : Spanish
Default       : No
Forced       : No
Original source medium    : Blu-ray

Text #37
ID        : 52
ID in the original source medium  : 4794 (0x12BA)
Format       : PGS
Muxing mode      : zlib
Codec ID       : S_HDMV/PGS
Codec ID/Info      : Picture based subtitle format used on BDs/HD-DVDs
Duration       : 1 h 34 min
Bit rate       : 23.5 kb/s
Frame rate       : 0.255 FPS
Count of elements     : 1454
Stream size      : 16.0 MiB (0%)
Language       : Swedish
Default       : No
Forced       : No
Original source medium    : Blu-ray

Text #38
ID        : 53
ID in the original source medium  : 4795 (0x12BB)
Format       : PGS
Muxing mode      : zlib
Codec ID       : S_HDMV/PGS
Codec ID/Info      : Picture based subtitle format used on BDs/HD-DVDs
Duration       : 1 h 27 min
Bit rate       : 30.1 kb/s
Frame rate       : 0.422 FPS
Count of elements     : 2206
Stream size      : 18.8 MiB (0%)
Language       : Thai
Default       : No
Forced       : No
Original source medium    : Blu-ray

Text #39
ID        : 54
ID in the original source medium  : 4795 (0x12BB)
Format       : PGS
Muxing mode      : zlib
Codec ID       : S_HDMV/PGS
Codec ID/Info      : Picture based subtitle format used on BDs/HD-DVDs
Duration       : 1 h 25 min
Bit rate       : 1 665 b/s
Frame rate       : 0.027 FPS
Count of elements     : 138
Stream size      : 1.01 MiB (0%)
Title        : FORCED
Language       : Thai
Default       : No
Forced       : No
Original source medium    : Blu-ray

Text #40
ID        : 55
ID in the original source medium  : 4796 (0x12BC)
Format       : PGS
Muxing mode      : zlib
Codec ID       : S_HDMV/PGS
Codec ID/Info      : Picture based subtitle format used on BDs/HD-DVDs
Duration       : 1 h 27 min
Bit rate       : 31.4 kb/s
Frame rate       : 0.420 FPS
Count of elements     : 2200
Stream size      : 19.6 MiB (0%)
Language       : Turkish
Default       : No
Forced       : No
Original source medium    : Blu-ray

Text #41
ID        : 56
ID in the original source medium  : 4797 (0x12BD)
Format       : PGS
Muxing mode      : zlib
Codec ID       : S_HDMV/PGS
Codec ID/Info      : Picture based subtitle format used on BDs/HD-DVDs
Duration       : 1 h 34 min
Bit rate       : 1 119 b/s
Frame rate       : 0.018 FPS
Count of elements     : 102
Stream size      : 774 KiB (0%)
Language       : French
Default       : No
Forced       : No
Original source medium    : Blu-ray

Text #42
ID        : 57
ID in the original source medium  : 4797 (0x12BD)
Format       : PGS
Muxing mode      : zlib
Codec ID       : S_HDMV/PGS
Codec ID/Info      : Picture based subtitle format used on BDs/HD-DVDs
Duration       : 1 h 34 min
Bit rate       : 1 119 b/s
Frame rate       : 0.018 FPS
Count of elements     : 102
Stream size      : 774 KiB (0%)
Title        : FORCED
Language       : French
Default       : No
Forced       : No
Original source medium    : Blu-ray

Text #43
ID        : 58
ID in the original source medium  : 4798 (0x12BE)
Format       : PGS
Muxing mode      : zlib
Codec ID       : S_HDMV/PGS
Codec ID/Info      : Picture based subtitle format used on BDs/HD-DVDs
Duration       : 1 h 34 min
Bit rate       : 1 008 b/s
Frame rate       : 0.015 FPS
Count of elements     : 86
Stream size      : 698 KiB (0%)
Title        : FORCED
Language       : Japanese
Default       : No
Forced       : No
Original source medium    : Blu-ray

Menu
00:00:00.000      : en:Chapter 01
00:09:46.168      : en:Chapter 02
00:12:46.807      : en:Chapter 03
00:18:12.341      : en:Chapter 04
00:25:31.446      : en:Chapter 05
00:29:14.544      : en:Chapter 06
00:37:19.111      : en:Chapter 07
00:43:18.554      : en:Chapter 08
00:49:58.245      : en:Chapter 09
00:54:29.349      : en:Chapter 10
01:00:51.356      : en:Chapter 11
01:06:24.689      : en:Chapter 12
01:08:55.548      : en:Chapter 13
01:14:56.825      : en:Chapter 14
01:19:39.107      : en:Chapter 15
01:29:49.509      : en:Chapter 16


悠悠MP4_MP4电影下载_黑衣人 Men.in.Black.1997.25th.Anniversary.Edition.2160p.BluRay.REMUX.HEVC.DTS-HD.MA.TrueHD.7.1.Atmos-FGT 53.91 GB
悠悠MP4_MP4电影下载_黑衣人 Men.in.Black.1997.25th.Anniversary.Edition.2160p.BluRay.REMUX.HEVC.DTS-HD.MA.TrueHD.7.1.Atmos-FGT 53.91 GB
悠悠MP4_MP4电影下载_黑衣人 Men.in.Black.1997.25th.Anniversary.Edition.2160p.BluRay.REMUX.HEVC.DTS-HD.MA.TrueHD.7.1.Atmos-FGT 53.91 GB

磁力链接

magnet:?xt=urn:btih:2c662fbcb305826b36f1c17dc70fdd5f46a239e4
上传的附件:
最新回复 (0)
返回
本站所有资源均收集自互联网,没有提供影片资源存储, 也未参与录制、上传,若本站收录的资源无意侵犯了您的权益, 请联系邮箱:gogoimgs#gmail.com(#[email protected])