[2022] [欧美] [科幻] [x264-720P] 芒斯特一家 The.Munsters.2022.720p.WEB.H264-KBOX 2.46 GB

uump4 2月前

悠悠MP4_MP4电影下载_芒斯特一家 The.Munsters.2022.720p.WEB.H264-KBOX 2.46 GB

◎片  名 芒斯特一家 The Munsters
◎年  代 2022
◎产  地 美国
◎类  别 喜剧 / 科幻 / 恐怖 / 奇幻
◎语  言 英语
◎上映日期 2022-09-27(美国)
◎IMDb评分  4.7/10 from 62 users
◎IMDb链接  https://www.imdb.com/title/tt14813212/
◎豆瓣评分 /10 from 0 users
◎豆瓣链接 https://movie.douban.com/subject/35700158/
◎片  长 
◎导  演 罗布·赞比 Rob Zombie
◎编  剧 罗布·赞比 Rob Zombie
◎主  演 雪莉·穆恩·赞比 Sheri Moon Zombie
       丹尼尔·洛巴克 Daniel Roebuck
       杰弗里·丹尼尔·菲利普斯 Jeffrey Daniel Phillips

◎简  介

  Reboot of "The Munsters", that followed a family of monsters who moves from Transylvania to an American suburb.



Video
ID           : 1
Format       : AVC
Format/Info      : Advanced Video Codec
Format profile       : [email protected]
Format settings      : CABAC / 5 Ref Frames
Format settings, CABAC       : Yes
Format settings, Reference frames    : 5 frames
Codec ID         : V_MPEG4/ISO/AVC
Duration         : 1 h 49 min
Bit rate         : 2 820 kb/s
Width        : 1 280 pixels
Height       : 720 pixels
Display aspect ratio     : 16:9
Frame rate mode      : Constant
Frame rate       : 23.976 (24000/1001) FPS
Color space      : YUV
Chroma subsampling       : 4:2:0
Bit depth        : 8 bits
Scan type        : Progressive
Bits/(Pixel*Frame)       : 0.128
Stream size      : 2.16 GiB (88%)
Default          : Yes
Forced       : No
Color range      : Limited
Color primaries      : BT.709
Transfer characteristics     : BT.709
Matrix coefficients      : BT.709

Audio
ID           : 2
Format       : AC-3
Format/Info      : Audio Coding 3
Commercial name      : Dolby Digital
Codec ID         : A_AC3
Duration         : 1 h 49 min
Bit rate mode        : Constant
Bit rate         : 384 kb/s
Channel(s)       : 6 channels
Channel layout       : L R C LFE Ls Rs
Sampling rate        : 48.0 kHz
Frame rate       : 31.250 FPS (1536 SPF)
Compression mode     : Lossy
Stream size      : 301 MiB (12%)
Language         : English
Service kind         : Complete Main
Default          : Yes
Forced       : No

Text #1
ID           : 3
Format       : UTF-8
Codec ID         : S_TEXT/UTF8
Codec ID/Info        : UTF-8 Plain Text
Duration         : 1 h 47 min
Bit rate         : 68 b/s
Count of elements        : 2195
Stream size      : 54.0 KiB (0%)
Title        : English CC
Language         : English
Default          : No
Forced       : No

Text #2
ID           : 4
Format       : UTF-8
Codec ID         : S_TEXT/UTF8
Codec ID/Info        : UTF-8 Plain Text
Duration         : 1 h 48 min
Bit rate         : 59 b/s
Count of elements        : 1338
Stream size      : 47.0 KiB (0%)
Title        : Spanish Latin American
Language         : Spanish
Default          : No
Forced       : No

Text #3
ID           : 5
Format       : UTF-8
Codec ID         : S_TEXT/UTF8
Codec ID/Info        : UTF-8 Plain Text
Duration         : 1 h 48 min
Bit rate         : 55 b/s
Count of elements        : 1349
Stream size      : 44.3 KiB (0%)
Title        : French European
Language         : French
Default          : No
Forced       : No

Menu
00:00:00.000         : en:Chapter 01
00:07:39.542         : en:Chapter 02
00:13:08.830         : en:Chapter 03
00:21:18.778         : en:Chapter 04
00:26:34.344         : en:Chapter 05
00:34:53.051         : en:Chapter 06
00:41:30.657         : en:Chapter 07
00:48:40.628         : en:Chapter 08
00:57:00.086         : en:Chapter 09
01:03:33.229         : en:Chapter 10
01:08:53.174         : en:Chapter 11
01:15:43.209         : en:Chapter 12
01:23:54.409         : en:Chapter 13
01:29:48.263         : en:Chapter 14
01:35:57.007         : en:Chapter 15
01:42:02.414         : en:Chapter 16



Screenshots:
悠悠MP4_MP4电影下载_芒斯特一家 The.Munsters.2022.720p.WEB.H264-KBOX 2.46 GB
T: The.Munsters.2022.720p.WEB.H264-KBOX
D: 09/27/2022
R: 01:49:44
V: 1280x720 2 820 kb/s 23.976 FPS
A: English AC-3 5.1
S: English,French,Spanish
I: https://www.imdb.com/title/tt14813212/

磁力链接

magnet:?xt=urn:btih:baf11f1b9713c1784100f1e3d1d423cd30f07ea2

上传的附件:
最新回复 (0)
返回
本站所有资源均收集自互联网,没有提供影片资源存储, 也未参与录制、上传,若本站收录的资源无意侵犯了您的权益, 请联系邮箱:gogoimgs#gmail.com(#[email protected])