[2022] [欧美] [惊悚] [x264-1080P] 坠落 Fall.2022.1080p.AMZN.WEBRip.DDP5.1.x264-FLUX 5.79 GB

uump4 2月前

悠悠MP4_MP4电影下载_坠落 Fall.2022.1080p.AMZN.WEBRip.DDP5.1.x264-FLUX 5.79 GB

◎片  名 坠落 Fall / 跌落 / 下坠 / 命悬2000呎(港) / 坠(台) / The Fall
◎年  代 2022
◎产  地 英国 / 美国
◎类  别 动作 / 惊悚 / 冒险 / 运动
◎语  言 英语
◎上映日期 2022-08-12(美国)
◎IMDb评分  6.4/10 from 26540 users
◎IMDb链接  https://www.imdb.com/title/tt15325794/
◎豆瓣评分 7.2/10 from 90276 users
◎豆瓣链接 https://movie.douban.com/subject/35700395/
◎片  长 107分钟
◎导  演 斯科特·曼 Scott Mann
◎编  剧 乔纳森·弗兰克 Jonathan Frank
       斯科特·曼 Scott Mann
◎主  演 格蕾丝·富尔顿 Grace Fulton
       维吉尼亚·加德纳 Virginia Gardner
       杰弗里·迪恩·摩根 Jeffrey Dean Morgan
       梅森·古丁 Mason Gooding
       贾斯珀·科尔 Jasper Cole
       达雷尔·丹尼斯 Darrell Dennis
       朱莉娅·佩斯·米契尔 Julia Pace Mitchell

◎简  介

  贝琪(格蕾丝·富尔顿 饰)和亨特(维吉尼亚·加德纳 饰)是一对喜欢追求刺激的好友,某天,她们攀上一座高达610米的电视塔后,意外受困于顶端,面对恶劣天气和物资短缺,她们必须设法在令人晕眩的高度上活下去。



Video
ID           : 1
Format       : AVC
Format/Info      : Advanced Video Codec
Format profile       : [email protected]
Format settings      : CABAC / 4 Ref Frames
Format settings, CABAC       : Yes
Format settings, Reference frames    : 4 frames
Codec ID         : V_MPEG4/ISO/AVC
Duration         : 1 h 47 min
Bit rate mode        : Constant
Bit rate         : 7 090 kb/s
Nominal bit rate     : 10 000 kb/s
Width        : 1 920 pixels
Height       : 960 pixels
Display aspect ratio     : 2.000
Frame rate mode      : Constant
Frame rate       : 23.976 (24000/1001) FPS
Color space      : YUV
Chroma subsampling       : 4:2:0
Bit depth        : 8 bits
Scan type        : Progressive
Bits/(Pixel*Frame)       : 0.160
Stream size      : 5.31 GiB (92%)
Default          : No
Forced       : No
Color range      : Limited
Color primaries      : BT.709
Transfer characteristics     : BT.709
Matrix coefficients      : BT.709

Audio
ID           : 2
Format       : E-AC-3
Format/Info      : Enhanced AC-3
Commercial name      : Dolby Digital Plus
Codec ID         : A_EAC3
Duration         : 1 h 47 min
Bit rate mode        : Constant
Bit rate         : 640 kb/s
Channel(s)       : 6 channels
Channel layout       : L R C LFE Ls Rs
Sampling rate        : 48.0 kHz
Frame rate       : 31.250 FPS (1536 SPF)
Compression mode     : Lossy
Stream size      : 491 MiB (8%)
Language         : English
Service kind         : Complete Main
Default          : No
Forced       : No

Text #1
ID           : 3
Format       : UTF-8
Codec ID         : S_TEXT/UTF8
Codec ID/Info        : UTF-8 Plain Text
Duration         : 1 h 41 min
Bit rate         : 43 b/s
Frame rate       : 0.208 FPS
Count of elements        : 1264
Stream size      : 32.0 KiB (0%)
Language         : English
Default          : No
Forced       : No

Text #2
ID           : 4
Format       : UTF-8
Codec ID         : S_TEXT/UTF8
Codec ID/Info        : UTF-8 Plain Text
Duration         : 1 h 41 min
Bit rate         : 52 b/s
Frame rate       : 0.261 FPS
Count of elements        : 1587
Stream size      : 39.1 KiB (0%)
Title        : SDH
Language         : English
Default          : No
Forced       : No

Menu
01:47:11.000         : en:Credits



悠悠MP4_MP4电影下载_坠落 Fall.2022.1080p.AMZN.WEBRip.DDP5.1.x264-FLUX 5.79 GB
悠悠MP4_MP4电影下载_坠落 Fall.2022.1080p.AMZN.WEBRip.DDP5.1.x264-FLUX 5.79 GB
悠悠MP4_MP4电影下载_坠落 Fall.2022.1080p.AMZN.WEBRip.DDP5.1.x264-FLUX 5.79 GB

磁力链接

magnet:?xt=urn:btih:e339326d7124fa1b81567651a38552bf3475868f

上传的附件:
最新回复 (0)
返回
本站所有资源均收集自互联网,没有提供影片资源存储, 也未参与录制、上传,若本站收录的资源无意侵犯了您的权益, 请联系邮箱:gogoimgs#gmail.com(#[email protected])