[2022] [欧美] [恐怖] [x265-4K] 水妖 Nix.2022.2160p.WEB-DL.x265.10bit.SDR.DD5.1-NOGRP 8.47 GB

uump4 2月前

悠悠MP4_MP4电影下载_水妖 Nix.2022.2160p.WEB-DL.x265.10bit.SDR.DD5.1-NOGRP 8.47 GB

◎片  名 水妖 Nix
◎年  代 2022
◎产  地 美国
◎类  别 惊悚 / 恐怖
◎语  言 英语
◎上映日期 2022-09-27(Digital)
◎IMDb评分 
◎IMDb链接  https://www.imdb.com/title/tt14292086/
◎豆瓣评分 /10 from 0 users
◎豆瓣链接 https://movie.douban.com/subject/36012204/
◎片  长 
◎导  演 安东尼·C·费兰特 Anthony C. Ferrante
◎编  剧 斯凯尔·卡莱布 Skyler Caleb
       安东尼·C·费兰特 Anthony C. Ferrante
        James Zimbardi
◎主  演  James Zimbardi
       迪·沃伦斯 Dee Wallace
       迈克尔·帕尔 Michael Paré

◎简  介

  A family finds themselves on a dark, scary journey into their own self-created madness when a mysterious entity manifests itself.



Video
ID           : 1
Format       : HEVC
Format/Info      : High Efficiency Video Coding
Format profile       : Main [email protected]@High
Codec ID         : V_MPEGH/ISO/HEVC
Duration         : 1 h 38 min
Bit rate         : 11.9 Mb/s
Width        : 3 840 pixels
Height       : 1 632 pixels
Display aspect ratio     : 2.35:1
Frame rate mode      : Constant
Frame rate       : 23.976 FPS
Color space      : YUV
Chroma subsampling       : 4:2:0
Bit depth        : 10 bits
Bits/(Pixel*Frame)       : 0.079
Stream size      : 8.20 GiB (97%)
Default          : Yes
Forced       : No
Color range      : Limited
Color primaries      : BT.709
Transfer characteristics     : BT.709
Matrix coefficients      : BT.709

Audio
ID           : 2
Format       : AC-3
Format/Info      : Audio Coding 3
Commercial name      : Dolby Digital
Codec ID         : A_AC3
Duration         : 1 h 38 min
Bit rate mode        : Constant
Bit rate         : 384 kb/s
Channel(s)       : 6 channels
Channel layout       : L R C LFE Ls Rs
Sampling rate        : 48.0 kHz
Frame rate       : 31.250 FPS (1536 SPF)
Compression mode     : Lossy
Stream size      : 271 MiB (3%)
Language         : English
Service kind         : Complete Main
Default          : Yes
Forced       : No

Text #1
ID           : 3
Format       : UTF-8
Codec ID         : S_TEXT/UTF8
Codec ID/Info        : UTF-8 Plain Text
Duration         : 1 h 36 min
Bit rate         : 42 b/s
Frame rate       : 0.204 FPS
Count of elements        : 1180
Stream size      : 29.8 KiB (0%)
Language         : English
Default          : Yes
Forced       : No

Text #2
ID           : 4
Format       : UTF-8
Codec ID         : S_TEXT/UTF8
Codec ID/Info        : UTF-8 Plain Text
Duration         : 1 h 37 min
Bit rate         : 50 b/s
Frame rate       : 0.260 FPS
Count of elements        : 1514
Stream size      : 36.2 KiB (0%)
Title        : SDH
Language         : English
Default          : No
Forced       : No



悠悠MP4_MP4电影下载_水妖 Nix.2022.2160p.WEB-DL.x265.10bit.SDR.DD5.1-NOGRP 8.47 GB
悠悠MP4_MP4电影下载_水妖 Nix.2022.2160p.WEB-DL.x265.10bit.SDR.DD5.1-NOGRP 8.47 GB
悠悠MP4_MP4电影下载_水妖 Nix.2022.2160p.WEB-DL.x265.10bit.SDR.DD5.1-NOGRP 8.47 GB

磁力链接

magnet:?xt=urn:btih:7f666a08ff04ee0f843d7ce3f58ed8386219b003

上传的附件:
最新回复 (0)
返回
本站所有资源均收集自互联网,没有提供影片资源存储, 也未参与录制、上传,若本站收录的资源无意侵犯了您的权益, 请联系邮箱:gogoimgs#gmail.com(#[email protected])