[更早] [欧美] [惊悚] [x264-1080P] 幽灵战警 Beyond.the.Law.1993.Directors.Cut.iNTERNAL.1080p.BluRay.x264-WaLMaRT 9.00 GB

uump4 2月前

悠悠MP4_MP4电影下载_幽灵战警 Beyond.the.Law.1993.Directors.Cut.iNTERNAL.1080p.BluRay.x264-WaLMaRT 9.00 GB

◎片  名 幽灵战警 Beyond the Law / 卧底神鹰 / Fixing the Shadow
◎年  代 1993
◎产  地 美国
◎类  别 剧情 / 惊悚 / 犯罪
◎语  言 英语
◎上映日期 1993-04-22(德国)
◎IMDb评分  6.4/10 from 6918 users
◎IMDb链接  https://www.imdb.com/title/tt0103805/
◎豆瓣评分 /10 from 0 users
◎豆瓣链接 https://movie.douban.com/subject/1304336/
◎片  长 108分钟
◎导  演 拉里·弗格森 Larry Ferguson
◎编  剧 拉里·弗格森 Larry Ferguson
◎主  演 查理·辛 Charlie Sheen
       琳达·费奥伦蒂诺 Linda Fiorentino
       迈克尔·马德森 Michael Madsen
       考特尼·万斯 Courtney B. Vance
       莱昂·里皮 Leon Rippy
       丹尼斯·伯克利 Dennis Burkley
       雷普·汤恩 Rip Torn
       拉里·弗格森 Larry Ferguson
       Larry Bartels Larry Bartels
       Michael Waltman Michael Waltman
       乔伊·萨加尔 Joey Sagal
       Scott Johnson Scott Johnson

◎简  介

  查利.希恩、迈克尔.马德森、琳达.费奥伦迪诺联合主演的本片是一部精险的动作片,故事内容具吸引力,深受观众的喜爱。讲述青年干探沙逊,因其独特的印弟安血统和背景被卧底特别调查组高级警官康派看中,遂力邀加入作卧底,潜入一班电单车党调查毒品交易。几经辛苦,他终获首领热血信任,二人更以兄弟相称。眼见热血的凶残暴行,实在惨不忍睹,于是决定凭自已的精明大破匪穴。



Video
ID           : 1
Format       : AVC
Format/Info      : Advanced Video Codec
Format profile       : [email protected]
Format settings      : CABAC / 4 Ref Frames
Format settings, CABAC       : Yes
Format settings, Reference frames    : 4 frames
Codec ID         : V_MPEG4/ISO/AVC
Duration         : 1 h 48 min
Bit rate         : 11.4 Mb/s
Width        : 1 920 pixels
Height       : 1 080 pixels
Display aspect ratio     : 16:9
Frame rate mode      : Constant
Frame rate       : 23.976 (24000/1001) FPS
Color space      : YUV
Chroma subsampling       : 4:2:0
Bit depth        : 8 bits
Scan type        : Progressive
Bits/(Pixel*Frame)       : 0.230
Stream size      : 8.66 GiB (96%)
Writing library      : x264 core 164 r3095 baee400
Encoding settings        : cabac=1 / ref=4 / deblock=1:-3:-3 / analyse=0x3:0x133 / me=umh / subme=9 / psy=1 / psy_rd=1.00:0.00 / mixed_ref=1 / me_range=16 / chroma_me=1 / trellis=2 / 8x8dct=1 / cqm=0 / deadzone=21,11 / fast_pskip=1 / chroma_qp_offset=-2 / threads=18 / lookahead_threads=1 / sliced_threads=0 / nr=0 / decimate=1 / interlaced=0 / bluray_compat=0 / constrained_intra=0 / bframes=3 / b_pyramid=2 / b_adapt=2 / b_bias=0 / direct=3 / weightb=1 / open_gop=0 / weightp=2 / keyint=250 / keyint_min=23 / scenecut=40 / intra_refresh=0 / rc_lookahead=60 / rc=crf / mbtree=1 / crf=19.0 / qcomp=0.60 / qpmin=0 / qpmax=69 / qpstep=4 / ip_ratio=1.40 / aq=3:0.70
Language         : English
Default          : Yes
Forced       : No

Audio
ID           : 2
Format       : AC-3
Format/Info      : Audio Coding 3
Commercial name      : Dolby Digital
Codec ID         : A_AC3
Duration         : 1 h 48 min
Bit rate mode        : Constant
Bit rate         : 448 kb/s
Channel(s)       : 6 channels
Channel layout       : L R C LFE Ls Rs
Sampling rate        : 48.0 kHz
Frame rate       : 31.250 FPS (1536 SPF)
Compression mode     : Lossy
Stream size      : 347 MiB (4%)
Language         : English
Service kind         : Complete Main
Default          : Yes
Forced       : No

Text
ID           : 3
Format       : PGS
Muxing mode      : zlib
Codec ID         : S_HDMV/PGS
Codec ID/Info        : Picture based subtitle format used on BDs/HD-DVDs
Duration         : 1 h 44 min
Bit rate         : 31.7 kb/s
Count of elements        : 1769
Stream size      : 23.6 MiB (0%)
Language         : German
Default          : Yes
Forced       : No



Screenshots:
悠悠MP4_MP4电影下载_幽灵战警 Beyond.the.Law.1993.Directors.Cut.iNTERNAL.1080p.BluRay.x264-WaLMaRT 9.00 GB
;               a   +           :
- --W--        +                - --L-- -

.           + - -- --- --+-<#>-+- ---  --  -    +        .

:       +      a                        R    +      - --T-- -
- --M-- -                .            .    -+-              ;

.       2006      +                2022       .

::    (          \'             ;          )    ::  < wlMt >

::        ______)  * STARS  *  OF  *  GREED *  (______         ::

::            ) __/ )   /(  O )) / ( ) D (/ (_/ )  /         ::

::           )   // (_/___    )( /    / ) _)(  O )          ::

::            https://www.imdb.com/title/tt0103805/
::          Name........:   Beyond the Law 1993 Directors Cut
::         Release Date:   2022-09-18                         ::
::         Genre.......:   crime drama thriller               ::
::         Runtime.....:   1:48:21                            ::
::         RARs........:   97x100mb                           ::
::         Language....:   English                            ::
Source......:   [email protected] Mbps

::         Video.......:   [email protected] Mbps, crf=19.0            ::
::         Resolution..:   1 920x1 080                        ::
::         FPS.........:   23.976 fps                         ::
::         Source a/r..:   16:9                               ::

::         Audio.......:   AC-3 @ 448 Kbps                    ::
::         Subtitles...:   None                               ::
::         Source......:   BluRay                             ::

::      (  O ) )(  ) __ ( ) _)  )   /   )( /    / ) _)(  O )   ::

An undercover cop joins a murderous, arms-dealing biker gang
to try to put them behind bars.

:.                   HOPE YOU GUYS ENJOY ^^                    .:

)(         .===.          _/7           )))         .===.
(o o)        o o        (o o)         (o o)        o o
ooO--(_)--Ooo-ooO--(_)--Ooo-ooO--(_)--Ooo-ooO--(_)--Ooo-ooO--(_)--Ooo

\'    W a L M a R T        2 0 2 2    \'      \'

磁力链接

magnet:?xt=urn:btih:b74d70e18450b8a17979109b962dcabbac226204

上传的附件:
最新回复 (0)
返回
本站所有资源均收集自互联网,没有提供影片资源存储, 也未参与录制、上传,若本站收录的资源无意侵犯了您的权益, 请联系邮箱:gogoimgs#gmail.com(#[email protected])