[更早] [欧美] [剧情] [x265-1080P] 天使坠落人间 Angela.1995.PROPER.1080p.WEBRip.x265-RARBG 1.59 GB

uump4 2月前

悠悠MP4_MP4电影下载_天使坠落人间 Angela.1995.PROPER.1080p.WEBRip.x265-RARBG 1.59 GB

◎片  名 天使坠落人间 Angela
◎年  代 1995
◎产  地 美国
◎类  别 剧情
◎语  言 英语
◎上映日期 1996-01-26
◎IMDb评分  6.3/10 from 933 users
◎IMDb链接  https://www.imdb.com/title/tt0112364/
◎豆瓣评分 7.6/10 from 117 users
◎豆瓣链接 https://movie.douban.com/subject/1305479/
◎片  长 99 分钟
◎导  演 丽贝卡·米勒 Rebecca Miller
◎编  剧 丽贝卡·米勒 Rebecca Miller
◎主  演 海登·瓦尔希 Hynden Walch
       Io Tillett Wright Io Tillett Wright
       亨利·斯特拉姆 Henry Stram
       Rodger L. Phillips Rodger L. Phillips
       安娜·莱文 Anna Levine
       弗兰西丝·康罗伊 Frances Conroy
       彼得·费辛利 Peter Facinelli
       约翰·文堤米利亚 John Ventimiglia
       文森特·加洛 Vincent Gallo

◎简  介

  电影通过一个孩子的眼睛透视家庭的分崩离析与天主教教义,安琪拉十岁,艾莉六岁。由于她们的妈妈-梅罹患忧郁症,她们的爸爸-安德鲁为了让家人获得心灵上的平静,开始带她们上教堂。年幼的安琪拉深受天主教义的影响,开始幻想堕落前的 恶魔就住在家中。她深信只要她与艾莉的灵魂越纯洁,妈妈就会 越快乐,于是她自创了许多涤净灵魂的仪式。或许最出人意料的是,这样孩子气的想法与做法,最后却带来悲惨的后果...                                    
      在罪恶及赎罪中寻求一个平衡点,《天使坠落人间》透过一个创造及想像力丰富的十岁小女孩,来看这个世界,由丽贝卡.米勒执导,米兰达史都华莱恩、夏绿蒂夏娃布莱斯及安娜汤姆逊主演,并获得1995年圣丹斯影展剧情片电影人大奖、最佳摄影及1996 年布鲁塞尔国际幻想影展的银鸦奖。本片是丽贝卡.米勒的处女作,其父是非当有名的剧作家亚瑟米勒,而夫婿更是鼎鼎大名英国演技派男星丹尼尔戴路易斯。



Video
ID           : 1
Format       : HEVC
Format/Info      : High Efficiency Video Coding
Format profile       : Main [email protected]@Main
Codec ID         : hev1
Codec ID/Info        : High Efficiency Video Coding
Duration         : 1 h 41 min
Bit rate         : 2 000 kb/s
Width        : 1 920 pixels
Height       : 1 036 pixels
Display aspect ratio     : 1.85:1
Frame rate mode      : Constant
Frame rate       : 23.976 (24000/1001) FPS
Color space      : YUV
Chroma subsampling       : 4:2:0
Bit depth        : 10 bits
Bits/(Pixel*Frame)       : 0.042
Stream size      : 1.42 GiB (90%)
Writing library      : x265 3.3+4-rarbg-30eb4de83092:[Linux][GCC 8.3.1][64 bit] 10bit
Encoding settings        : cpuid=1111039 / frame-threads=4 / wpp / no-pmode / no-pme / no-psnr / no-ssim / log-level=2 / input-csp=1 / input-res=1920x1036 / interlace=0 / total-frames=0 / level-idc=0 / high-tier=1 / uhd-bd=0 / ref=4 / no-allow-non-conformance / no-repeat-headers / annexb / no-aud / no-hrd / info / hash=0 / no-temporal-layers / open-gop / min-keyint=23 / keyint=250 / gop-lookahead=0 / bframes=4 / b-adapt=2 / b-pyramid / bframe-bias=0 / rc-lookahead=25 / lookahead-slices=4 / scenecut=40 / hist-scenecut=0 / radl=0 / no-splice / no-intra-refresh / ctu=64 / min-cu-size=8 / rect / no-amp / max-tu-size=32 / tu-inter-depth=1 / tu-intra-depth=1 / limit-tu=0 / rdoq-level=2 / dynamic-rd=0.00 / no-ssim-rd / signhide / no-tskip / nr-intra=0 / nr-inter=0 / no-constrained-intra / strong-intra-smoothing / max-merge=3 / limit-refs=3 / limit-modes / me=3 / subme=3 / merange=57 / temporal-mvp / no-frame-dup / no-hme / weightp / no-weightb / no-analyze-src-pics / deblock=0:0 / no-sao / no-sao-non-deblock / rd=4 / selective-sao=0 / no-early-skip / rskip / no-fast-intra / no-tskip-fast / no-cu-lossless / no-b-intra / no-splitrd-skip / rdpenalty=0 / psy-rd=2.00 / psy-rdoq=1.00 / no-rd-refine / no-lossless / cbqpoffs=0 / crqpoffs=0 / rc=abr / bitrate=2000 / qcomp=0.60 / qpstep=4 / stats-write=0 / stats-read=2 / cplxblur=20.0 / qblur=0.5 / ipratio=1.40 / pbratio=1.30 / aq-mode=3 / aq-strength=1.00 / cutree / zone-count=0 / no-strict-cbr / qg-size=32 / no-rc-grain / qpmax=69 / qpmin=0 / no-const-vbv / sar=1 / overscan=0 / videoformat=5 / range=0 / colorprim=2 / transfer=2 / colormatrix=2 / chromaloc=0 / display-window=0 / cll=0,0 / min-luma=0 / max-luma=1023 / log2-max-poc-lsb=8 / vui-timing-info / vui-hrd-info / slices=1 / no-opt-qp-pps / no-opt-ref-list-length-pps / no-multi-pass-opt-rps / scenecut-bias=0.05 / hist-threshold=0.01 / no-opt-cu-delta-qp / no-aq-motion / no-hdr10 / no-hdr10-opt / no-dhdr10-opt / no-idr-recovery-sei / analysis-reuse-level=0 / analysis-save-reuse-level=0 / analysis-load-reuse-level=0 / scale-factor=0 / refine-intra=0 / refine-inter=0 / refine-mv=1 / refine-ctu-distortion=0 / no-limit-sao / ctu-info=0 / no-lowpass-dct / refine-analysis-type=0 / copy-pic=1 / max-ausize-factor=1.0 / no-dynamic-refine / no-single-sei / no-hevc-aq / no-svt / no-field / qp-adaptation-range=1.00 / no-scenecut-aware-qpconformance-window-offsets / right=0 / bottom=0
Encoded date         : UTC 2022-09-25 15:24:41
Tagged date      : UTC 2022-09-25 15:24:41
Codec configuration box      : hvcC

Audio
ID           : 2
Format       : AAC LC
Format/Info      : Advanced Audio Codec Low Complexity
Codec ID         : mp4a-40-2
Duration         : 1 h 41 min
Duration_LastFrame       : -1 ms
Bit rate mode        : Constant
Bit rate         : 224 kb/s
Channel(s)       : 2 channels
Channel layout       : L R
Sampling rate        : 48.0 kHz
Frame rate       : 46.875 FPS (1024 SPF)
Compression mode     : Lossy
Stream size      : 163 MiB (10%)
Language         : English
Default          : Yes
Alternate group      : 1
Encoded date         : UTC 2022-09-25 15:24:41
Tagged date      : UTC 2022-09-25 15:24:41



悠悠MP4_MP4电影下载_天使坠落人间 Angela.1995.PROPER.1080p.WEBRip.x265-RARBG 1.59 GB
悠悠MP4_MP4电影下载_天使坠落人间 Angela.1995.PROPER.1080p.WEBRip.x265-RARBG 1.59 GB
悠悠MP4_MP4电影下载_天使坠落人间 Angela.1995.PROPER.1080p.WEBRip.x265-RARBG 1.59 GB

磁力链接

magnet:?xt=urn:btih:3d12ba68107d9f57f21eca0d73d2eb833819ccfb

上传的附件:
最新回复 (0)
返回
本站所有资源均收集自互联网,没有提供影片资源存储, 也未参与录制、上传,若本站收录的资源无意侵犯了您的权益, 请联系邮箱:gogoimgs#gmail.com(#[email protected])