[2019] [欧美] [其他] [x265-4K] 金属之声 Sound.of.Metal.2019.2160p.BluRay.x265.10bit.SDR.DTS-HD.MA.5.1-SWTYBLZ 52.08 GB

uump4 2月前

悠悠MP4_MP4电影下载_金属之声 Sound.of.Metal.2019.2160p.BluRay.x265.10bit.SDR.DTS-HD.MA.5.1-SWTYBLZ 52.08 GB

◎片  名 金属之声 Sound of Metal / 静寂的鼓手(台)
◎年  代 2019
◎产  地 美国
◎类  别 剧情 / 音乐
◎语  言 英语
◎上映日期 2019-09-06(多伦多电影节) / 2020-11-20(美国) / 2020-12-04(美国网络)
◎IMDb评分  7.7/10 from 124940 users
◎IMDb链接  https://www.imdb.com/title/tt5363618/
◎豆瓣评分 7.5/10 from 11260 users
◎豆瓣链接 https://movie.douban.com/subject/26716348/
◎片  长 120分钟
◎导  演 达里尔斯·马德尔 Darius Marder
◎编  剧 达里尔斯·马德尔 Darius Marder
       亚伯拉罕·马德尔 Abraham Marder
       德里克·斯安弗朗斯 Derek Cianfrance
◎主  演 里兹·阿迈德 Riz Ahmed
       奥利维亚·库克 Olivia Cooke
       保罗·拉西 Paul Raci
       劳伦·利德洛夫 Lauren Ridloff
       马修·阿马立克 Mathieu Amalric
       克里斯·佩尔费蒂 Chris Perfetti
       迈克尔·陶 Michael Tow
       威廉·泽法尔茨 William Xifaras
       亚历克斯·基尔戈尔 Alex Kilgore
       杰米·加扎里安 Jamie Ghazarian

◎简  介

  一个摇滚乐队的鼓手(里兹·阿迈德)突然发现自己失聪,他的乐队搭档露(奥利维亚·库克)和他都很懊恼,但又不得不面对这残酷的现实。影片去年在多伦多电影节首映,作为导演处女作获得媒体好评。

◎获奖情况

  第78届金球奖 (2021)
  电影类 剧情片最佳男主角(提名)
  里兹·阿迈德

  第74届英国电影学院奖 (2021)
  电影奖 最佳男主角(提名)
  里兹·阿迈德电影奖 最佳男配角(提名)
  保罗·拉西电影奖 最佳剪辑
  电影奖 最佳音效
  

  第44届多伦多国际电影节 (2019)
  站台奖(提名)
  达里尔斯·马德尔

  第73届美国导演工会奖 (2021)
  最佳新人导演奖
  达里尔斯·马德尔

  第27届美国演员工会奖 (2021)
  电影奖 最佳男主角(提名)
  里兹·阿迈德

  第73届美国编剧工会奖 (2021)
  电影奖 最佳原创剧本(提名)
  德里克·斯安弗朗斯 / 亚伯拉罕·马德尔 / 达里尔斯·马德尔

  第32届美国制片人工会奖 (2021)
  最佳电影制片人奖(提名)
  

  第71届美国剪辑工会奖 (2021)
  剧情片最佳剪辑(提名)
  米克尔·E·G·尼尔森

  第68届美国音效剪辑协会奖 (2021)
  金卷轴奖 最佳电影音效剪辑(提名)
  金卷轴奖 最佳电影对白剪辑(提名)
  金卷轴奖 最佳配乐剪辑(提名)
  

  第57届美国声音效果协会奖 (2021)
  真人电影最佳音效
  

  第92届美国国家评论协会奖 (2020)
  最佳男主角
  里兹·阿迈德最佳男配角
  保罗·拉西年度佳片
  

  第26届美国评论家选择电影奖 (2021)
  最佳影片(提名)
  最佳男主角(提名)
  里兹·阿迈德最佳男配角(提名)
  保罗·拉西最佳原创剧本(提名)
  亚伯拉罕·马德尔 / 达里尔斯·马德尔最佳剪辑
  米克尔·E·G·尼尔森

  第36届美国独立精神奖 (2021)
  最佳处女作
  最佳男主角
  里兹·阿迈德最佳男配角
  保罗·拉西

  第30届哥谭独立电影奖 (2020)
  最佳男演员
  里兹·阿迈德

  第21届美国电影学会奖 (2020)
  年度佳片
  

  第25届金卫星奖 (2021)
  电影部门 最佳剧情片(提名)
  电影部门 最佳导演(提名)
  达里尔斯·马德尔电影部门 剧情片最佳男主角(提名)
  里兹·阿迈德电影部门 最佳音效(提名)
  

  第55届美国国家影评人协会奖 (2021)
  最佳男主角(提名)
  里兹·阿迈德最佳男配角
  保罗·拉西

  第41届伦敦影评人协会奖 (2021)
  年度男主角(提名)
  里兹·阿迈德年度英国/爱尔兰男演员(提名)
  里兹·阿迈德技术成就奖(提名)
  

  第41届波士顿影评人协会奖 (2020)
  最佳男主角(提名)
  里兹·阿迈德最佳男配角
  保罗·拉西

  第46届洛杉矶影评人协会奖 (2020)
  最佳男主角(提名)
  里兹·阿迈德最佳男配角(提名)
  保罗·拉西

  第33届芝加哥影评人协会奖 (2020)
  最佳男主角(提名)
  里兹·阿迈德最佳男配角
  保罗·拉西最具突破导演(米洛斯·斯泰利克奖)(提名)
  达里尔斯·马德尔

  第5届亚特兰大影评人协会奖 (2020)
  十佳影片
  最佳男主角
  里兹·阿迈德最佳男配角
  保罗·拉西

  第24届美国在线影评人协会奖 (2021)
  最佳影片(提名)
  最佳男主角(提名)
  里兹·阿迈德最佳男配角(提名)
  保罗·拉西最佳突破导演(提名)
  达里尔斯·马德尔



Video
ID           : 1
Format       : HEVC
Format/Info      : High Efficiency Video Coding
Format profile       : Main [email protected]@High
Codec ID         : V_MPEGH/ISO/HEVC
Duration         : 2 h 0 min
Bit rate         : 57.0 Mb/s
Width        : 3 840 pixels
Height       : 1 608 pixels
Display aspect ratio     : 2.40:1
Frame rate mode      : Constant
Frame rate       : 23.976 (24000/1001) FPS
Color space      : YUV
Chroma subsampling       : 4:2:0
Bit depth        : 10 bits
Bits/(Pixel*Frame)       : 0.385
Stream size      : 48.1 GiB (93%)
Writing library      : x265 3.0+1-ed72af837053:[Windows][GCC 8.2.0][64 bit] 10bit
Encoding settings        : cpuid=1111039 / frame-threads=6 / numa-pools=40 / wpp / no-pmode / no-pme / no-psnr / no-ssim / log-level=2 / input-csp=1 / input-res=3840x1608 / interlace=0 / total-frames=174034 / level-idc=51 / high-tier=1 / uhd-bd=0 / ref=3 / no-allow-non-conformance / repeat-headers / annexb / aud / hrd / info / hash=0 / no-temporal-layers / no-open-gop / min-keyint=1 / keyint=24 / gop-lookahead=0 / bframes=4 / b-adapt=2 / b-pyramid / bframe-bias=0 / rc-lookahead=25 / lookahead-slices=4 / scenecut=40 / radl=0 / no-splice / no-intra-refresh / ctu=64 / min-cu-size=8 / no-rect / no-amp / max-tu-size=32 / tu-inter-depth=1 / tu-intra-depth=1 / limit-tu=0 / rdoq-level=0 / dynamic-rd=0.00 / no-ssim-rd / signhide / no-tskip / nr-intra=0 / nr-inter=0 / no-constrained-intra / strong-intra-smoothing / max-merge=2 / limit-refs=3 / no-limit-modes / me=1 / subme=2 / merange=57 / temporal-mvp / weightp / no-weightb / no-analyze-src-pics / deblock=0:0 / no-sao / no-sao-non-deblock / rd=3 / no-early-skip / rskip / no-fast-intra / no-tskip-fast / no-cu-lossless / no-b-intra / no-splitrd-skip / rdpenalty=0 / psy-rd=2.00 / psy-rdoq=0.00 / no-rd-refine / no-lossless / cbqpoffs=0 / crqpoffs=0 / rc=crf / crf=16.0 / qcomp=0.60 / qpstep=4 / stats-write=0 / stats-read=0 / vbv-maxrate=160000 / vbv-bufsize=160000 / vbv-init=0.9 / crf-max=0.0 / crf-min=0.0 / ipratio=1.40 / pbratio=1.30 / aq-mode=1 / aq-strength=1.00 / cutree / zone-count=0 / no-strict-cbr / qg-size=32 / no-rc-grain / qpmax=69 / qpmin=0 / no-const-vbv / sar=1 / overscan=0 / videoformat=5 / range=0 / colorprim=2 / transfer=2 / colormatrix=2 / chromaloc=0 / display-window=0 / max-cll=0,0 / min-luma=0 / max-luma=1023 / log2-max-poc-lsb=8 / vui-timing-info / vui-hrd-info / slices=1 / opt-qp-pps / opt-ref-list-length-pps / no-multi-pass-opt-rps / scenecut-bias=0.05 / no-opt-cu-delta-qp / no-aq-motion / no-hdr / no-hdr-opt / no-dhdr10-opt / no-idr-recovery-sei / analysis-reuse-level=5 / scale-factor=0 / refine-intra=0 / refine-inter=0 / refine-mv=0 / refine-ctu-distortion=0 / no-limit-sao / ctu-info=0 / no-lowpass-dct / refine-analysis-type=0 / copy-pic=1 / max-ausize-factor=1.0 / no-dynamic-refine / no-single-sei / no-hevc-aq / qp-adaptation-range=1.00
Default          : Yes
Forced       : No

Audio #1
ID           : 2
ID in the original source medium     : 4352 (0x1100)
Format       : DTS XLL
Format/Info      : Digital Theater Systems
Commercial name      : DTS-HD Master Audio
Codec ID         : A_DTS
Duration         : 2 h 0 min
Bit rate mode        : Variable
Bit rate         : 3 737 kb/s
Channel(s)       : 6 channels
Channel layout       : C L R Ls Rs LFE
Sampling rate        : 48.0 kHz
Frame rate       : 93.750 FPS (512 SPF)
Bit depth        : 24 bits
Compression mode     : Lossless
Stream size      : 3.16 GiB (6%)
Title        : DTS-HD MA 5.1
Language         : English
Default          : Yes
Forced       : No
Original source medium       : Blu-ray

Audio #2
ID           : 3
Format       : AC-3
Format/Info      : Audio Coding 3
Commercial name      : Dolby Digital
Codec ID         : A_AC3
Duration         : 2 h 0 min
Bit rate mode        : Constant
Bit rate         : 640 kb/s
Channel(s)       : 6 channels
Channel layout       : L R C LFE Ls Rs
Sampling rate        : 48.0 kHz
Frame rate       : 31.250 FPS (1536 SPF)
Compression mode     : Lossy
Stream size      : 554 MiB (1%)
Title        : DD 5.1
Language         : English
Service kind         : Complete Main
Default          : No
Forced       : No

Text #1
ID           : 4
Format       : UTF-8
Codec ID         : S_TEXT/UTF8
Codec ID/Info        : UTF-8 Plain Text
Duration         : 1 h 58 min
Bit rate         : 30 b/s
Frame rate       : 0.128 FPS
Count of elements        : 910
Stream size      : 26.4 KiB (0%)
Language         : English
Default          : Yes
Forced       : No

Text #2
ID           : 5
Format       : UTF-8
Codec ID         : S_TEXT/UTF8
Codec ID/Info        : UTF-8 Plain Text
Duration         : 2 h 0 min
Bit rate         : 37 b/s
Frame rate       : 0.162 FPS
Count of elements        : 1171
Stream size      : 33.4 KiB (0%)
Title        : SDH
Language         : English
Default          : No
Forced       : No

Text #3
ID           : 6
ID in the original source medium     : 4768 (0x12A0)
Format       : PGS
Muxing mode      : zlib
Codec ID         : S_HDMV/PGS
Codec ID/Info        : Picture based subtitle format used on BDs/HD-DVDs
Duration         : 2 h 0 min
Bit rate         : 32.5 kb/s
Frame rate       : 0.340 FPS
Count of elements        : 2452
Stream size      : 28.0 MiB (0%)
Language         : English
Default          : No
Forced       : No
Original source medium       : Blu-ray

Menu
00:00:00.000         : en:Chapter 01
00:42:18.869         : en:Chapter 02
01:31:15.970         : en:Chapter 03



SWEATY BALLZ presents

Sound.of.Metal.2019.2160p.BluRay.x265.10bit.SDR.DTS-HD.MA.5.1-SWTYBLZ

Converted from 10 bit HDR to 10 bit SDR using tripple mixed Hable-Reinhard-JJ per scene+frame analysis algorithm

Screenshots are 8bit SDR

悠悠MP4_MP4电影下载_金属之声 Sound.of.Metal.2019.2160p.BluRay.x265.10bit.SDR.DTS-HD.MA.5.1-SWTYBLZ 52.08 GB
悠悠MP4_MP4电影下载_金属之声 Sound.of.Metal.2019.2160p.BluRay.x265.10bit.SDR.DTS-HD.MA.5.1-SWTYBLZ 52.08 GB
悠悠MP4_MP4电影下载_金属之声 Sound.of.Metal.2019.2160p.BluRay.x265.10bit.SDR.DTS-HD.MA.5.1-SWTYBLZ 52.08 GB
悠悠MP4_MP4电影下载_金属之声 Sound.of.Metal.2019.2160p.BluRay.x265.10bit.SDR.DTS-HD.MA.5.1-SWTYBLZ 52.08 GB
悠悠MP4_MP4电影下载_金属之声 Sound.of.Metal.2019.2160p.BluRay.x265.10bit.SDR.DTS-HD.MA.5.1-SWTYBLZ 52.08 GB
悠悠MP4_MP4电影下载_金属之声 Sound.of.Metal.2019.2160p.BluRay.x265.10bit.SDR.DTS-HD.MA.5.1-SWTYBLZ 52.08 GB
悠悠MP4_MP4电影下载_金属之声 Sound.of.Metal.2019.2160p.BluRay.x265.10bit.SDR.DTS-HD.MA.5.1-SWTYBLZ 52.08 GB
悠悠MP4_MP4电影下载_金属之声 Sound.of.Metal.2019.2160p.BluRay.x265.10bit.SDR.DTS-HD.MA.5.1-SWTYBLZ 52.08 GB
悠悠MP4_MP4电影下载_金属之声 Sound.of.Metal.2019.2160p.BluRay.x265.10bit.SDR.DTS-HD.MA.5.1-SWTYBLZ 52.08 GB
悠悠MP4_MP4电影下载_金属之声 Sound.of.Metal.2019.2160p.BluRay.x265.10bit.SDR.DTS-HD.MA.5.1-SWTYBLZ 52.08 GB
悠悠MP4_MP4电影下载_金属之声 Sound.of.Metal.2019.2160p.BluRay.x265.10bit.SDR.DTS-HD.MA.5.1-SWTYBLZ 52.08 GB

磁力链接

magnet:?xt=urn:btih:6ec19a1e9c99a5c2f6c5733f4278e5bc6c21431b

上传的附件:
最新回复 (0)
返回
本站所有资源均收集自互联网,没有提供影片资源存储, 也未参与录制、上传,若本站收录的资源无意侵犯了您的权益, 请联系邮箱:gogoimgs#gmail.com(#[email protected])