[更早] [中国香港] [动作] [x264-4K] 警察故事3:超级警察 Police.Story.3.Super.Cop.1992.CHINESE.2160p.BluRay.x264.8bit.SDR.DTS-HD.MA.TrueHD.7.1.Atmos-SWTYBLZ 62.16 GB

uump4 2月前

悠悠MP4_MP4电影下载_警察故事3:超级警察 Police.Story.3.Super.Cop.1992.CHINESE.2160p.BluRay.x264.8bit.SDR.DTS-HD.MA.TrueHD.7.1.Atmos-SWTYBLZ 62.16 GB

◎片  名 警察故事3:超级警察 警察故事III超級警察 / Police Story 3: Super Cop / Supercop
◎年  代 1992
◎产  地 中国香港
◎类  别 喜剧 / 动作 / 犯罪
◎语  言 粤语 / 英语 / 汉语普通话 / 马来语 / 泰语
◎上映日期 1992-07-04
◎IMDb评分  6.9/10 from 21746 users
◎IMDb链接  https://www.imdb.com/title/tt0104558/
◎豆瓣评分 7.8/10 from 61276 users
◎豆瓣链接 https://movie.douban.com/subject/1296203/
◎片  长 95分钟
◎导  演 唐季礼 Stanley Tong
◎编  剧 马美萍 Fibe Ma
       邓景生 Edward Tang
◎主  演 成龙 Jackie Chan
       杨紫琼 Michelle Yeoh
       张曼玉 Maggie Cheung
       曾江 Kenneth Tsang
       元华 Wah Yuen
       董骠 Bill Tung
       麦伟章 Wai Cheung Mak
       段伟伦 William Duan
       林富伟 Fu-wai Lam
       姜小亮
       林志泰 Chi Tai Lam
       金佩恩 Kim Penn
       唐季礼 Stanley Tong
       顾美华 Josephine Koo
       沈威 Wai Shum
       王霄 Kelvin Wong
       陈欣健 Philip Chan
       卢惠光 Ken Lo
       罗烈 Lieh Lo

◎简  介

  这集,神勇干探陈家驹(成龙 饰)将远赴大陆,化身囚犯打入国际军火毒品走私集团的内部。在大陆美女公安杨建华(杨紫琼 饰)的帮助下,家驹顺利接近了正在服刑的集团成员豹强(元华 饰)。豹强视家驹为心腹,和他策划越狱行动。为了放长线,家驹爽快应承了。                                    
      他们越狱后,豹强主张到家驹随口编出来的家乡躲避,幸得杨建华提前安排,才没有漏出马脚,杨建华自称家驹妹妹,与他们同行。他们来到香港见到了集团的老大猜霸,顺利成为集团的一员。猜霸带着手下前往吉隆坡营救被绑架的妻子,遇到了家驹的女友阿美(张曼玉 饰)。阿美不知家驹正在执行任务,以为他和杨建华在偷情。阿美的举动引起了集团成员的怀疑,连场大战一触即发!

◎获奖情况

  第29届台北金马影展 (1992)
  金马奖 最佳剧情片(提名)
  金马奖 最佳男主角
  成龙金马奖 最佳动作设计(提名)
  唐季礼金马奖 最佳剪辑
  张耀宗 / 张嘉辉

  第12届香港电影金像奖 (1993)
  最佳男主角(提名)
  成龙最佳动作设计(提名)
  陈文清 / 薛春炜 / 黄明升 / 唐季礼 / 邓德荣



Video
ID           : 1
Format       : AVC
Format/Info      : Advanced Video Codec
Format profile       : [email protected]
Format settings      : CABAC / 5 Ref Frames
Format settings, CABAC       : Yes
Format settings, Reference frames    : 5 frames
Codec ID         : V_MPEG4/ISO/AVC
Duration         : 1 h 36 min
Bit rate         : 79.3 Mb/s
Width        : 3 840 pixels
Height       : 1 634 pixels
Display aspect ratio     : 2.35:1
Frame rate mode      : Constant
Frame rate       : 23.976 (24000/1001) FPS
Color space      : YUV
Chroma subsampling       : 4:2:0
Bit depth        : 8 bits
Scan type        : Progressive
Bits/(Pixel*Frame)       : 0.527
Stream size      : 53.4 GiB (86%)
Writing library      : x264 core 157 r2935 545de2f
Encoding settings        : cabac=1 / ref=5 / deblock=1:-1:-1 / analyse=0x3:0x113 / me=umh / subme=10 / psy=1 / psy_rd=1.00:0.15 / mixed_ref=1 / me_range=48 / chroma_me=1 / trellis=2 / 8x8dct=1 / cqm=0 / deadzone=21,11 / fast_pskip=1 / chroma_qp_offset=-3 / threads=48 / lookahead_threads=4 / sliced_threads=0 / nr=0 / decimate=0 / interlaced=0 / bluray_compat=0 / constrained_intra=0 / bframes=3 / b_pyramid=2 / b_adapt=2 / b_bias=0 / direct=3 / weightb=1 / open_gop=0 / weightp=2 / keyint=250 / keyint_min=23 / scenecut=40 / intra_refresh=0 / rc_lookahead=50 / rc=crf / mbtree=1 / crf=20.0 / qcomp=0.60 / qpmin=0 / qpmax=69 / qpstep=4 / ip_ratio=1.40 / aq=1:1.00
Default          : Yes
Forced       : No

Audio #1
ID           : 2
ID in the original source medium     : 4354 (0x1102)
Format       : MLP FBA 16-ch
Format/Info      : Meridian Lossless Packing FBA with 16-channel presentation
Commercial name      : Dolby TrueHD with Dolby Atmos
Codec ID         : A_TRUEHD
Duration         : 1 h 36 min
Bit rate mode        : Variable
Bit rate         : 3 150 kb/s
Maximum bit rate     : 4 398 kb/s
Channel(s)       : 8 channels
Channel layout       : L R C LFE Ls Rs Lb Rb
Sampling rate        : 48.0 kHz
Frame rate       : 1 200.000 FPS (40 SPF)
Bit depth        : 24 bits
Compression mode     : Lossless
Stream size      : 2.12 GiB (3%)
Title        : TrueHD 7.1 Atmos
Language         : Chinese
Default          : Yes
Forced       : No
Original source medium       : Blu-ray
Number of dynamic objects    : 15
Bed channel count        : 1 channel
Bed channel configuration    : LFE

Audio #2
ID           : 3
Format       : DTS XLL
Format/Info      : Digital Theater Systems
Commercial name      : DTS-HD Master Audio
Codec ID         : A_DTS
Duration         : 1 h 36 min
Bit rate mode        : Variable
Bit rate         : 3 998 kb/s
Channel(s)       : 8 channels
Channel layout       : C L R LFE Lb Rb Lss Rss
Sampling rate        : 48.0 kHz
Frame rate       : 93.750 FPS (512 SPF)
Bit depth        : 24 bits
Compression mode     : Lossless
Stream size      : 2.69 GiB (4%)
Title        : DTS-HD MA 7.1
Language         : Chinese
Default          : No
Forced       : No

Audio #3
ID           : 4
ID in the original source medium     : 4354 (0x1102)
Format       : AC-3
Format/Info      : Audio Coding 3
Commercial name      : Dolby Digital
Format settings      : Dolby Surround EX
Codec ID         : A_AC3
Duration         : 1 h 36 min
Bit rate mode        : Constant
Bit rate         : 320 kb/s
Channel(s)       : 6 channels
Channel layout       : L R C LFE Ls Rs
Sampling rate        : 48.0 kHz
Frame rate       : 31.250 FPS (1536 SPF)
Compression mode     : Lossy
Stream size      : 221 MiB (0%)
Title        : DD 5.1
Language         : Chinese
Service kind         : Complete Main
Default          : No
Forced       : No
Original source medium       : Blu-ray

Audio #4
ID           : 5
ID in the original source medium     : 4352 (0x1100)
Format       : PCM
Format settings      : Little / Signed
Codec ID         : A_PCM/INT/LIT
Duration         : 1 h 36 min
Bit rate mode        : Constant
Bit rate         : 768 kb/s
Channel(s)       : 1 channel
Sampling rate        : 48.0 kHz
Frame rate       : 30.000 FPS (1600 SPF)
Bit depth        : 16 bits
Stream size      : 530 MiB (1%)
Title        : LPCM 1.0
Language         : Chinese
Default          : No
Forced       : No
Original source medium       : Blu-ray

Audio #5
ID           : 6
Format       : AC-3
Format/Info      : Audio Coding 3
Commercial name      : Dolby Digital
Codec ID         : A_AC3
Duration         : 1 h 36 min
Bit rate mode        : Constant
Bit rate         : 640 kb/s
Channel(s)       : 1 channel
Channel layout       : C
Sampling rate        : 48.0 kHz
Frame rate       : 31.250 FPS (1536 SPF)
Compression mode     : Lossy
Stream size      : 442 MiB (1%)
Title        : DD 1.0
Language         : Chinese
Service kind         : Complete Main
Default          : No
Forced       : No

Audio #6
ID           : 7
ID in the original source medium     : 4353 (0x1101)
Format       : PCM
Format settings      : Little / Signed
Codec ID         : A_PCM/INT/LIT
Duration         : 1 h 36 min
Bit rate mode        : Constant
Bit rate         : 1 536 kb/s
Channel(s)       : 2 channels
Sampling rate        : 48.0 kHz
Frame rate       : 30.000 FPS (1600 SPF)
Bit depth        : 16 bits
Stream size      : 1.04 GiB (2%)
Title        : LPCM 2.0
Language         : Chinese
Default          : No
Forced       : No
Original source medium       : Blu-ray

Audio #7
ID           : 8
Format       : AC-3
Format/Info      : Audio Coding 3
Commercial name      : Dolby Digital
Codec ID         : A_AC3
Duration         : 1 h 36 min
Bit rate mode        : Constant
Bit rate         : 640 kb/s
Channel(s)       : 2 channels
Channel layout       : L R
Sampling rate        : 48.0 kHz
Frame rate       : 31.250 FPS (1536 SPF)
Compression mode     : Lossy
Stream size      : 442 MiB (1%)
Title        : DD 2.0
Language         : Chinese
Service kind         : Complete Main
Default          : No
Forced       : No

Audio #8
ID           : 9
ID in the original source medium     : 4355 (0x1103)
Format       : PCM
Format settings      : Little / Signed
Codec ID         : A_PCM/INT/LIT
Duration         : 1 h 36 min
Bit rate mode        : Constant
Bit rate         : 768 kb/s
Channel(s)       : 1 channel
Sampling rate        : 48.0 kHz
Frame rate       : 30.000 FPS (1600 SPF)
Bit depth        : 16 bits
Stream size      : 530 MiB (1%)
Title        : LPCM 1.0
Language         : English
Default          : No
Forced       : No
Original source medium       : Blu-ray

Audio #9
ID           : 10
Format       : AC-3
Format/Info      : Audio Coding 3
Commercial name      : Dolby Digital
Codec ID         : A_AC3
Duration         : 1 h 36 min
Bit rate mode        : Constant
Bit rate         : 640 kb/s
Channel(s)       : 1 channel
Channel layout       : C
Sampling rate        : 48.0 kHz
Frame rate       : 31.250 FPS (1536 SPF)
Compression mode     : Lossy
Stream size      : 442 MiB (1%)
Title        : DD 1.0
Language         : English
Service kind         : Complete Main
Default          : No
Forced       : No

Text #1
ID           : 11
Format       : UTF-8
Codec ID         : S_TEXT/UTF8
Codec ID/Info        : UTF-8 Plain Text
Duration         : 1 h 27 min
Bit rate         : 2 b/s
Frame rate       : 0.008 FPS
Count of elements        : 43
Stream size      : 1.60 KiB (0%)
Title        : FORCED
Language         : English
Default          : No
Forced       : Yes

Text #2
ID           : 12
Format       : UTF-8
Codec ID         : S_TEXT/UTF8
Codec ID/Info        : UTF-8 Plain Text
Duration         : 1 h 34 min
Bit rate         : 48 b/s
Frame rate       : 0.201 FPS
Count of elements        : 1143
Stream size      : 33.7 KiB (0%)
Language         : English
Default          : Yes
Forced       : No

Text #3
ID           : 13
Format       : UTF-8
Codec ID         : S_TEXT/UTF8
Codec ID/Info        : UTF-8 Plain Text
Duration         : 1 h 34 min
Bit rate         : 48 b/s
Frame rate       : 0.201 FPS
Count of elements        : 1143
Stream size      : 33.8 KiB (0%)
Title        : SDH
Language         : English
Default          : No
Forced       : No

Text #4
ID           : 14
ID in the original source medium     : 4768 (0x12A0)
Format       : PGS
Muxing mode      : zlib
Codec ID         : S_HDMV/PGS
Codec ID/Info        : Picture based subtitle format used on BDs/HD-DVDs
Duration         : 1 h 34 min
Bit rate         : 31.6 kb/s
Frame rate       : 0.407 FPS
Count of elements        : 2310
Stream size      : 21.4 MiB (0%)
Language         : English
Default          : No
Forced       : No
Original source medium       : Blu-ray

Text #5
ID           : 15
ID in the original source medium     : 4769 (0x12A1)
Format       : PGS
Muxing mode      : zlib
Codec ID         : S_HDMV/PGS
Codec ID/Info        : Picture based subtitle format used on BDs/HD-DVDs
Duration         : 1 h 27 min
Bit rate         : 1 692 b/s
Frame rate       : 0.016 FPS
Count of elements        : 86
Stream size      : 1.05 MiB (0%)
Language         : English
Default          : No
Forced       : No
Original source medium       : Blu-ray

Menu
00:00:00.000         : en:Chapter 01
00:09:13.094         : en:Chapter 02
00:20:02.075         : en:Chapter 03
00:28:13.942         : en:Chapter 04
00:37:05.181         : en:Chapter 05
00:47:57.875         : en:Chapter 06
00:53:50.477         : en:Chapter 07
01:05:41.687         : en:Chapter 08
01:17:49.081         : en:Chapter 09
01:26:36.566         : en:Chapter 10



SWEATY BALLZ presents

Supercop.1992.2160p.BluRay.x264.8bit.SDR.DTS-HD.MA.TrueHD.7.1.Atmos-SWTYBLZ

Converted from 10 bit HDR to 8 bit SDR using tripple mixed Hable-Reinhard-JJ per scene+frame analysis algorithm

悠悠MP4_MP4电影下载_警察故事3:超级警察 Police.Story.3.Super.Cop.1992.CHINESE.2160p.BluRay.x264.8bit.SDR.DTS-HD.MA.TrueHD.7.1.Atmos-SWTYBLZ 62.16 GB
悠悠MP4_MP4电影下载_警察故事3:超级警察 Police.Story.3.Super.Cop.1992.CHINESE.2160p.BluRay.x264.8bit.SDR.DTS-HD.MA.TrueHD.7.1.Atmos-SWTYBLZ 62.16 GB
悠悠MP4_MP4电影下载_警察故事3:超级警察 Police.Story.3.Super.Cop.1992.CHINESE.2160p.BluRay.x264.8bit.SDR.DTS-HD.MA.TrueHD.7.1.Atmos-SWTYBLZ 62.16 GB
悠悠MP4_MP4电影下载_警察故事3:超级警察 Police.Story.3.Super.Cop.1992.CHINESE.2160p.BluRay.x264.8bit.SDR.DTS-HD.MA.TrueHD.7.1.Atmos-SWTYBLZ 62.16 GB
悠悠MP4_MP4电影下载_警察故事3:超级警察 Police.Story.3.Super.Cop.1992.CHINESE.2160p.BluRay.x264.8bit.SDR.DTS-HD.MA.TrueHD.7.1.Atmos-SWTYBLZ 62.16 GB
悠悠MP4_MP4电影下载_警察故事3:超级警察 Police.Story.3.Super.Cop.1992.CHINESE.2160p.BluRay.x264.8bit.SDR.DTS-HD.MA.TrueHD.7.1.Atmos-SWTYBLZ 62.16 GB
悠悠MP4_MP4电影下载_警察故事3:超级警察 Police.Story.3.Super.Cop.1992.CHINESE.2160p.BluRay.x264.8bit.SDR.DTS-HD.MA.TrueHD.7.1.Atmos-SWTYBLZ 62.16 GB
悠悠MP4_MP4电影下载_警察故事3:超级警察 Police.Story.3.Super.Cop.1992.CHINESE.2160p.BluRay.x264.8bit.SDR.DTS-HD.MA.TrueHD.7.1.Atmos-SWTYBLZ 62.16 GB
悠悠MP4_MP4电影下载_警察故事3:超级警察 Police.Story.3.Super.Cop.1992.CHINESE.2160p.BluRay.x264.8bit.SDR.DTS-HD.MA.TrueHD.7.1.Atmos-SWTYBLZ 62.16 GB
悠悠MP4_MP4电影下载_警察故事3:超级警察 Police.Story.3.Super.Cop.1992.CHINESE.2160p.BluRay.x264.8bit.SDR.DTS-HD.MA.TrueHD.7.1.Atmos-SWTYBLZ 62.16 GB

磁力链接

magnet:?xt=urn:btih:16bcc66675b646ad1d1a129b83bbe7a03bccae6c

上传的附件:
最新回复 (0)
返回
本站所有资源均收集自互联网,没有提供影片资源存储, 也未参与录制、上传,若本站收录的资源无意侵犯了您的权益, 请联系邮箱:gogoimgs#gmail.com(#[email protected])