[2022] [欧美] [其他] [x264-1080P] 闪虾亮晶晶2 La.revanche.des.Crevettes.pailletees.2022.FRENCH.1080p.AMZN.WEBRip.DDP5.1.x264-BONBON 7.51 GB

uump4 1天前

悠悠MP4_MP4电影下载_闪虾亮晶晶2 La.revanche.des.Crevettes.pailletees.2022.FRENCH.1080p.AMZN.WEBRip.DDP5.1.x264-BONBON 7.51 GB

◎片  名 闪虾亮晶晶2 La revanche des Crevettes pailletées / 闪虾的复仇
◎年  代 2022
◎产  地 法国
◎类  别 喜剧 / 同性
◎语  言 法语
◎上映日期 2022-04-13(法国)
◎IMDb评分  6.3/10 from 159 users
◎IMDb链接  https://www.imdb.com/title/tt17049112/
◎豆瓣评分 /10 from 0 users
◎豆瓣链接 https://movie.douban.com/subject/35738427/
◎片  长 
◎导  演 
◎编  剧 
◎主  演 尼古拉斯·高布 Nicolas Gob

◎简  介

  Two years after the death of Jean, Matthias, the coach, decides to take Selime, a young man from the suburbs he believes is gay, to accompany the Shiny Shrimps to the Gay Games in Tokyo, on a trip to pay tribute to their friend who left too early. But after they miss their connection, they find themselves stranded in Russia, in one of the not the most gay-friendly regions in the world. The start of a crazy adventure as incredible as it is perilous.



Video
ID        : 1
Format       : AVC
Format/Info      : Advanced Video Codec
Format profile      : [email protected]
Format settings      : CABAC / 4 Ref Frames
Format settings, CABAC    : Yes
Format settings, Reference frames  : 4 frames
Codec ID       : V_MPEG4/ISO/AVC
Duration       : 1 h 53 min
Bit rate mode      : Constant
Bit rate       : 8 866 kb/s
Nominal bit rate     : 10 000 kb/s
Width        : 1 920 pixels
Height       : 800 pixels
Display aspect ratio     : 2.40:1
Frame rate mode      : Constant
Frame rate       : 23.976 (24000/1001) FPS
Color space      : YUV
Chroma subsampling     : 4:2:0
Bit depth       : 8 bits
Scan type       : Progressive
Bits/(Pixel*Frame)     : 0.241
Stream size      : 7.00 GiB (93%)
Default       : Yes
Forced       : No
Color range      : Limited
Color primaries      : BT.709
Transfer characteristics    : BT.709
Matrix coefficients     : BT.709

Audio
ID        : 2
Format       : E-AC-3
Format/Info      : Enhanced AC-3
Commercial name      : Dolby Digital Plus
Codec ID       : A_EAC3
Duration       : 1 h 53 min
Bit rate mode      : Constant
Bit rate       : 640 kb/s
Channel(s)       : 6 channels
Channel layout      : L R C LFE Ls Rs
Sampling rate      : 48.0 kHz
Frame rate       : 31.250 FPS (1536 SPF)
Compression mode     : Lossy
Stream size      : 517 MiB (7%)
Title        : French
Language       : French
Service kind      : Complete Main
Default       : Yes
Forced       : No

Text
ID        : 3
Format       : UTF-8
Codec ID       : S_TEXT/UTF8
Codec ID/Info      : UTF-8 Plain Text
Duration       : 1 h 47 min
Bit rate       : 41 b/s
Frame rate       : 0.219 FPS
Count of elements     : 1418
Stream size      : 32.8 KiB (0%)
Title        : English
Language       : English
Default       : No
Forced       : No


悠悠MP4_MP4电影下载_闪虾亮晶晶2 La.revanche.des.Crevettes.pailletees.2022.FRENCH.1080p.AMZN.WEBRip.DDP5.1.x264-BONBON 7.51 GB
悠悠MP4_MP4电影下载_闪虾亮晶晶2 La.revanche.des.Crevettes.pailletees.2022.FRENCH.1080p.AMZN.WEBRip.DDP5.1.x264-BONBON 7.51 GB
悠悠MP4_MP4电影下载_闪虾亮晶晶2 La.revanche.des.Crevettes.pailletees.2022.FRENCH.1080p.AMZN.WEBRip.DDP5.1.x264-BONBON 7.51 GB

磁力链接

magnet:?xt=urn:btih:d3808be05f028b2b36167dfcac83c223741a0eae
上传的附件:
最新回复 (0)
返回
本站所有资源均收集自互联网,没有提供影片资源存储, 也未参与录制、上传,若本站收录的资源无意侵犯了您的权益, 请联系邮箱:gogoimgs#gmail.com(#[email protected])