[2021] [韩国] [剧情] [x264-1080P] 大人们不懂 Young.Adult.Matters.2020.KOREAN.1080p.AMZN.WEBRip.DDP2.0.x264-THR 8.77 GB

uump4 3天前

悠悠MP4_MP4电影下载_大人们不懂 Young.Adult.Matters.2020.KOREAN.1080p.AMZN.WEBRip.DDP2.0.x264-THR 8.77 GB

◎片  名 大人们不懂 어른들은 몰라요 / 大人们都不知道 / Young Adult Matters
◎年  代 2021
◎产  地 韩国
◎类  别 剧情
◎语  言 韩语
◎上映日期 2021-04-15(韩国)
◎IMDb评分  5.9/10 from 317 users
◎IMDb链接  https://www.imdb.com/title/tt14440390/
◎豆瓣评分 5.6/10 from 384 users
◎豆瓣链接 https://movie.douban.com/subject/35174052/
◎片  长 127分钟
◎导  演 李焕 Lee Hwan
◎编  剧 李焕 Lee Hwan
◎主  演 安喜延 HaNi
      李瑜美 Yoo-mi Lee
      申阳光 Shin Haet Bit
      李焕 Lee Hwan
      朴健硕 Kang-sub Park
      方恩晶 Eun-jung Bang
      许俊硕 Jun-seok Heo
      韩慧芝 Han Hye-Ji

◎简  介

  电影《朴花英》导演李焕新作《大人们不懂》公开剧照。由安喜延和李裕美主演。
 该作品入围第25届釜山国际电影节韩国电影的今天-视觉部门,由little big Picture 发行。

◎获奖情况

  第42届韩国电影青龙奖 (2021)
  最佳新人女演员(提名)
  李瑜美

  第58届百想艺术大赏 (2022)
  电影类 最佳新人女演员
  李瑜美



Video
ID        : 1
Format       : AVC
Format/Info      : Advanced Video Codec
Format profile      : [email protected]
Format settings      : CABAC / 4 Ref Frames
Format settings, CABAC    : Yes
Format settings, Reference frames  : 4 frames
Codec ID       : V_MPEG4/ISO/AVC
Duration       : 2 h 7 min
Bit rate mode      : Constant
Bit rate       : 10 000 kb/s
Width        : 1 920 pixels
Height       : 1 040 pixels
Display aspect ratio     : 1.85:1
Frame rate mode      : Constant
Frame rate       : 24.000 FPS
Color space      : YUV
Chroma subsampling     : 4:2:0
Bit depth       : 8 bits
Scan type       : Progressive
Bits/(Pixel*Frame)     : 0.209
Stream size      : 8.57 GiB (98%)
Default       : Yes
Forced       : No
Color range      : Limited
Color primaries      : BT.709
Transfer characteristics    : BT.709
Matrix coefficients     : BT.709

Audio
ID        : 2
Format       : E-AC-3
Format/Info      : Enhanced AC-3
Commercial name      : Dolby Digital Plus
Codec ID       : A_EAC3
Duration       : 2 h 7 min
Bit rate mode      : Constant
Bit rate       : 224 kb/s
Channel(s)       : 2 channels
Channel layout      : L R
Sampling rate      : 48.0 kHz
Frame rate       : 31.250 FPS (1536 SPF)
Compression mode     : Lossy
Stream size      : 205 MiB (2%)
Language       : Korean
Service kind      : Complete Main
Default       : Yes
Forced       : No

Text
ID        : 3
Format       : UTF-8
Codec ID       : S_TEXT/UTF8
Codec ID/Info      : UTF-8 Plain Text
Duration       : 2 h 2 min
Bit rate       : 28 b/s
Frame rate       : 0.133 FPS
Count of elements     : 974
Stream size      : 25.4 KiB (0%)
Language       : English
Default       : No
Forced       : No


悠悠MP4_MP4电影下载_大人们不懂 Young.Adult.Matters.2020.KOREAN.1080p.AMZN.WEBRip.DDP2.0.x264-THR 8.77 GB
悠悠MP4_MP4电影下载_大人们不懂 Young.Adult.Matters.2020.KOREAN.1080p.AMZN.WEBRip.DDP2.0.x264-THR 8.77 GB
悠悠MP4_MP4电影下载_大人们不懂 Young.Adult.Matters.2020.KOREAN.1080p.AMZN.WEBRip.DDP2.0.x264-THR 8.77 GB

磁力链接

magnet:?xt=urn:btih:67a36aa23055db5b4733fd5fa45f6d5d537ac3d1
上传的附件:
最新回复 (0)
返回
本站所有资源均收集自互联网,没有提供影片资源存储, 也未参与录制、上传,若本站收录的资源无意侵犯了您的权益, 请联系邮箱:gogoimgs#gmail.com(#[email protected])