[2022] [欧美] [喜剧] [x264-1080P] 你得来看她 You.Have.To.Come.And.See.It.2022.SPANISH.1080p.WEBRip.AAC2.0.x264-KUCHU 2.71 GB

uump4 1天前

悠悠MP4_MP4电影下载_你得来看她 You.Have.To.Come.And.See.It.2022.SPANISH.1080p.WEBRip.AAC2.0.x264-KUCHU 2.71 GB

◎片  名 你得来看她 Tenéis que venir a verla / You Have to Come and See it / Musíte se přijet podívat
◎年  代 2022
◎产  地 西班牙
◎类  别 喜剧
◎语  言 西班牙语
◎上映日期 2022-07-01(卡罗维发利国际电影节)
◎IMDb评分  6.1/10 from 99 users
◎IMDb链接  https://www.imdb.com/title/tt14766636/
◎豆瓣评分 /10 from 0 users
◎豆瓣链接 https://movie.douban.com/subject/35557594/
◎片  长 64分钟
◎导  演 霍纳斯·特鲁埃瓦 Jonás Trueba
◎编  剧 霍纳斯·特鲁埃瓦 Jonás Trueba
◎主  演 伊萨索·阿拉纳 Itsaso Arana
      伊琳娜·埃斯柯拉 Irene Escolar

◎简  介

  Two couples in their thirties, heated discussions on the essentials of life unfolding between Madrid and the neighbouring countryside. Directorial star of Spanish film Jonas Trueba (The August Virgin, KVIFF 2019) is a master of soulful cinematic miniatures which don’t require long hours to convey profound, existential feelings infused with enchanting melancholy and gentle humour.



Video
ID        : 1
Format       : AVC
Format/Info      : Advanced Video Codec
Format profile      : [email protected]
Format settings      : CABAC / 4 Ref Frames
Format settings, CABAC    : Yes
Format settings, Reference frames  : 4 frames
Codec ID       : V_MPEG4/ISO/AVC
Duration       : 1 h 4 min
Bit rate       : 5 690 kb/s
Width        : 1 920 pixels
Height       : 1 080 pixels
Display aspect ratio     : 16:9
Frame rate mode      : Constant
Frame rate       : 24.000 FPS
Color space      : YUV
Chroma subsampling     : 4:2:0
Bit depth       : 8 bits
Scan type       : Progressive
Bits/(Pixel*Frame)     : 0.114
Stream size      : 2.57 GiB (95%)
Default       : Yes
Forced       : No

Audio
ID        : 2
Format       : AAC LC
Format/Info      : Advanced Audio Codec Low Complexity
Codec ID       : A_AAC-2
Duration       : 1 h 4 min
Bit rate       : 317 kb/s
Channel(s)       : 2 channels
Channel layout      : L R
Sampling rate      : 48.0 kHz
Frame rate       : 46.875 FPS (1024 SPF)
Compression mode     : Lossy
Stream size      : 147 MiB (5%)
Language       : Spanish
Default       : Yes
Forced       : No

Text
ID        : 3
Format       : UTF-8
Codec ID       : S_TEXT/UTF8
Codec ID/Info      : UTF-8 Plain Text
Duration       : 1 h 1 min
Bit rate       : 50 b/s
Frame rate       : 0.177 FPS
Count of elements     : 657
Stream size      : 23.0 KiB (0%)
Language       : English
Default       : Yes
Forced       : No


悠悠MP4_MP4电影下载_你得来看她 You.Have.To.Come.And.See.It.2022.SPANISH.1080p.WEBRip.AAC2.0.x264-KUCHU 2.71 GB
悠悠MP4_MP4电影下载_你得来看她 You.Have.To.Come.And.See.It.2022.SPANISH.1080p.WEBRip.AAC2.0.x264-KUCHU 2.71 GB
悠悠MP4_MP4电影下载_你得来看她 You.Have.To.Come.And.See.It.2022.SPANISH.1080p.WEBRip.AAC2.0.x264-KUCHU 2.71 GB

磁力链接

magnet:?xt=urn:btih:93b13fa71e5aef528d34a398b7da5d2f796de654
上传的附件:
最新回复 (0)
返回
本站所有资源均收集自互联网,没有提供影片资源存储, 也未参与录制、上传,若本站收录的资源无意侵犯了您的权益, 请联系邮箱:gogoimgs#gmail.com(#[email protected])