[2021] [欧美] [惊悚] [x264-1080P] 怪物传送门 The.Offering.2022.1080p.AMZN.WEBRip.DDP5.1.x264-THR 4.87 GB

uump4 1天前



◎片  名 怪物传送门 Monster Portal / The Offering / Paranormal Cemetery
◎年  代 2021
◎产  地 英国
◎类  别 悬疑 / 惊悚 / 恐怖
◎语  言 英语
◎上映日期 
◎IMDb评分  4.4/10 from 44 users
◎IMDb链接  https://www.imdb.com/title/tt14157332/
◎豆瓣评分 /10 from 0 users
◎豆瓣链接 https://movie.douban.com/subject/35693546/
◎片  长 
◎导  演 
◎编  剧 
◎主  演 

◎简  介

  A cult is about to waken H.P. Lovecraft's most feared creature.



Video
ID           : 1
Format       : AVC
Format/Info      : Advanced Video Codec
Format profile       : [email protected]
Format settings      : CABAC / 4 Ref Frames
Format settings, CABAC       : Yes
Format settings, Reference frames    : 4 frames
Codec ID         : V_MPEG4/ISO/AVC
Duration         : 1 h 18 min
Bit rate mode        : Constant
Bit rate         : 8 176 kb/s
Nominal bit rate     : 10 000 kb/s
Width        : 1 920 pixels
Height       : 1 040 pixels
Display aspect ratio     : 1.85:1
Frame rate mode      : Constant
Frame rate       : 25.000 FPS
Color space      : YUV
Chroma subsampling       : 4:2:0
Bit depth        : 8 bits
Scan type        : Progressive
Bits/(Pixel*Frame)       : 0.164
Stream size      : 4.51 GiB (93%)
Default          : Yes
Forced       : No
Color range      : Limited
Color primaries      : BT.709
Transfer characteristics     : BT.709
Matrix coefficients      : BT.709

Audio
ID           : 2
Format       : E-AC-3
Format/Info      : Enhanced AC-3
Commercial name      : Dolby Digital Plus
Codec ID         : A_EAC3
Duration         : 1 h 18 min
Bit rate mode        : Constant
Bit rate         : 640 kb/s
Channel(s)       : 6 channels
Channel layout       : L R C LFE Ls Rs
Sampling rate        : 48.0 kHz
Frame rate       : 31.250 FPS (1536 SPF)
Compression mode     : Lossy
Stream size      : 362 MiB (7%)
Language         : English
Service kind         : Complete Main
Default          : Yes
Forced       : No

Text
ID           : 3
Format       : UTF-8
Codec ID         : S_TEXT/UTF8
Codec ID/Info        : UTF-8 Plain Text
Duration         : 1 h 15 min
Bit rate         : 32 b/s
Frame rate       : 0.149 FPS
Count of elements        : 677
Stream size      : 18.1 KiB (0%)
Language         : English
Default          : No
Forced       : No



悠悠MP4_MP4电影下载_怪物传送门 The.Offering.2022.1080p.AMZN.WEBRip.DDP5.1.x264-THR 4.87 GB
悠悠MP4_MP4电影下载_怪物传送门 The.Offering.2022.1080p.AMZN.WEBRip.DDP5.1.x264-THR 4.87 GB
悠悠MP4_MP4电影下载_怪物传送门 The.Offering.2022.1080p.AMZN.WEBRip.DDP5.1.x264-THR 4.87 GB

磁力链接

magnet:?xt=urn:btih:0a5f1c7542089ee3b97d63e45d9290efad36b70f

上传的附件:
最新回复 (0)
返回
本站所有资源均收集自互联网,没有提供影片资源存储, 也未参与录制、上传,若本站收录的资源无意侵犯了您的权益, 请联系邮箱:gogoimgs#gmail.com(#[email protected])