[2019] [韩国] [喜剧] [x264-1080P] 我身体里的那个家伙 The.Dude.In.Me.2019.KOREAN.1080p.AMZN.WEBRip.DDP2.0.x264-THR 7.46 GB

uump4 3天前

悠悠MP4_MP4电影下载_我身体里的那个家伙 The.Dude.In.Me.2019.KOREAN.1080p.AMZN.WEBRip.DDP2.0.x264-THR 7.46 GB

◎片  名 我身体里的那个家伙 내안의 그놈 / 大佬上错身(港) / 我里面的那家伙(台) / Inside Me / The Dude in Me
◎年  代 2019
◎产  地 韩国
◎类  别 剧情 / 喜剧
◎语  言 韩语
◎上映日期 2019-01-09(韩国)
◎IMDb评分  6.9/10 from 2104 users
◎IMDb链接  https://www.imdb.com/title/tt9759978/
◎豆瓣评分 7.3/10 from 70664 users
◎豆瓣链接 https://movie.douban.com/subject/27088750/
◎片  长 122分钟
◎导  演 姜孝镇 Hyo-jin Kang
◎编  剧 申汉率 Han-sol Shin
      曹重勋 Joong-Hoon Jo
      姜孝镇 Hyo-jin Kang
◎主  演 郑振永 Jung Jin-young
      朴成雄 Park Sung-woong
      罗美兰 Mi-ran Ra
      李垂珉 Soo-min Lee
      李俊赫 Lee Joon-Hyuk
      金光奎 Kwang-gyu Kim
      闵智雅 Ji-ah Min
      尹敬浩 Kyung-ho Yoon
      金贤穆 Kim Hyun-mok
      朴庆惠 Gyeong-hye Park
      赵贤荣 Hyun-young Cho
      尹颂雅 Songa Yun
      智燦 Ji Chan
      金凡振 Bum-jin Kim
      金大涵 Dae-han Kim
      孙光业 Kwang-up Son
     
      朴晨雅 Shin-Ah Park
      朴智勋 Park Ji-hoon
      张真熙 Jin-hee Jang
      朴柱炫 Joo-Hyun Park
      郑智妍 Jung Ji Yeon
      李宇济 Woo-je Lee
      金俊亨 Kim Joon-hyung
      黄仁俊 In-Jun Hwang
     
      郑元昌 Won-chang Jung
      郑允荷 Jung Yun-Ha

◎简  介

  电影讲述从屋顶掉落的被霸凌的高中生和精英黑社会成员身体互换而发生的故事,朴成雄将饰演黑社会成员。



Video
ID        : 1
Format       : AVC
Format/Info      : Advanced Video Codec
Format profile      : [email protected]
Format settings      : CABAC / 4 Ref Frames
Format settings, CABAC    : Yes
Format settings, Reference frames  : 4 frames
Codec ID       : V_MPEG4/ISO/AVC
Duration       : 2 h 2 min
Bit rate mode      : Constant
Bit rate       : 8 499 kb/s
Nominal bit rate     : 10 000 kb/s
Width        : 1 920 pixels
Height       : 800 pixels
Display aspect ratio     : 2.40:1
Frame rate mode      : Constant
Frame rate       : 24.000 FPS
Color space      : YUV
Chroma subsampling     : 4:2:0
Bit depth       : 8 bits
Scan type       : Progressive
Bits/(Pixel*Frame)     : 0.231
Stream size      : 7.27 GiB (97%)
Default       : Yes
Forced       : No
Color range      : Limited
Color primaries      : BT.709
Transfer characteristics    : BT.709
Matrix coefficients     : BT.709

Audio
ID        : 2
Format       : E-AC-3
Format/Info      : Enhanced AC-3
Commercial name      : Dolby Digital Plus
Codec ID       : A_EAC3
Duration       : 2 h 2 min
Bit rate mode      : Constant
Bit rate       : 224 kb/s
Channel(s)       : 2 channels
Channel layout      : L R
Sampling rate      : 48.0 kHz
Frame rate       : 31.250 FPS (1536 SPF)
Compression mode     : Lossy
Stream size      : 196 MiB (3%)
Language       : Korean
Service kind      : Complete Main
Default       : Yes
Forced       : No

Text
ID        : 3
Format       : UTF-8
Codec ID       : S_TEXT/UTF8
Codec ID/Info      : UTF-8 Plain Text
Duration       : 1 h 58 min
Bit rate       : 40 b/s
Frame rate       : 0.207 FPS
Count of elements     : 1465
Stream size      : 35.1 KiB (0%)
Language       : English
Default       : No
Forced       : No


悠悠MP4_MP4电影下载_我身体里的那个家伙 The.Dude.In.Me.2019.KOREAN.1080p.AMZN.WEBRip.DDP2.0.x264-THR 7.46 GB
悠悠MP4_MP4电影下载_我身体里的那个家伙 The.Dude.In.Me.2019.KOREAN.1080p.AMZN.WEBRip.DDP2.0.x264-THR 7.46 GB
悠悠MP4_MP4电影下载_我身体里的那个家伙 The.Dude.In.Me.2019.KOREAN.1080p.AMZN.WEBRip.DDP2.0.x264-THR 7.46 GB

磁力链接

magnet:?xt=urn:btih:a6805d2219e6df949442274e32038acd2aa0cec8
上传的附件:
最新回复 (0)
返回
本站所有资源均收集自互联网,没有提供影片资源存储, 也未参与录制、上传,若本站收录的资源无意侵犯了您的权益, 请联系邮箱:gogoimgs#gmail.com(#[email protected])