[2021] [欧美] [恐怖] [x264-1080P] 夺回夜晚 Take.Back.The.Night.2021.1080p.AMZN.WEBRip.DDP5.1.x264-THR 5.62 GB

uump4 1天前

悠悠MP4_MP4电影下载_夺回夜晚 Take.Back.The.Night.2021.1080p.AMZN.WEBRip.DDP5.1.x264-THR 5.62 GB

◎片  名 夺回夜晚 Take Back the Night
◎年  代 2021
◎产  地 美国
◎类  别 恐怖
◎语  言 英语
◎上映日期 2021-08-14(美国)
◎IMDb评分  3.9/10 from 259 users
◎IMDb链接  https://www.imdb.com/title/tt6666354/
◎豆瓣评分 /10 from 0 users
◎豆瓣链接 https://movie.douban.com/subject/35567521/
◎片  长 90分钟
◎导  演 贾·埃莉奥特 Gia Elliot
◎编  剧 艾玛·菲茨帕特里克 Emma Fitzpatrick
      贾·埃莉奥特 Gia Elliot
◎主  演 艾玛·菲茨帕特里克 Emma Fitzpatrick
      珍妮弗·拉弗勒 Jennifer Lafleur

◎简  介

  Finding herself the victim of a violent monster attack, Jane launches a vigilante campaign to hunt the beast that tried to kill her. Jane's efforts intensify, but her troubling history of drug use and mental illness bubbles to the surface causing her family, community, and authorities to question the authenticity of her account. Suddenly alone in her fight, Jane starts to doubt her own memory of the attack...to doubt if Monster exists at all.



Video
ID        : 1
Format       : AVC
Format/Info      : Advanced Video Codec
Format profile      : [email protected]
Format settings      : CABAC / 4 Ref Frames
Format settings, CABAC    : Yes
Format settings, Reference frames  : 4 frames
Codec ID       : V_MPEG4/ISO/AVC
Duration       : 1 h 30 min
Bit rate mode      : Constant
Bit rate       : 8 285 kb/s
Nominal bit rate     : 10 000 kb/s
Width        : 1 920 pixels
Height       : 1 080 pixels
Display aspect ratio     : 16:9
Frame rate mode      : Constant
Frame rate       : 24.000 FPS
Color space      : YUV
Chroma subsampling     : 4:2:0
Bit depth       : 8 bits
Scan type       : Progressive
Bits/(Pixel*Frame)     : 0.166
Stream size      : 5.21 GiB (93%)
Default       : Yes
Forced       : No
Color range      : Limited
Color primaries      : BT.709
Transfer characteristics    : BT.709
Matrix coefficients     : BT.709

Audio
ID        : 2
Format       : E-AC-3
Format/Info      : Enhanced AC-3
Commercial name      : Dolby Digital Plus
Codec ID       : A_EAC3
Duration       : 1 h 30 min
Bit rate mode      : Constant
Bit rate       : 640 kb/s
Channel(s)       : 6 channels
Channel layout      : L R C LFE Ls Rs
Sampling rate      : 48.0 kHz
Frame rate       : 31.250 FPS (1536 SPF)
Compression mode     : Lossy
Stream size      : 412 MiB (7%)
Language       : English
Service kind      : Complete Main
Default       : Yes
Forced       : No

Text
ID        : 3
Format       : UTF-8
Codec ID       : S_TEXT/UTF8
Codec ID/Info      : UTF-8 Plain Text
Duration       : 1 h 27 min
Bit rate       : 52 b/s
Frame rate       : 0.212 FPS
Count of elements     : 1115
Stream size      : 33.6 KiB (0%)
Language       : English
Default       : No
Forced       : No


悠悠MP4_MP4电影下载_夺回夜晚 Take.Back.The.Night.2021.1080p.AMZN.WEBRip.DDP5.1.x264-THR 5.62 GB
悠悠MP4_MP4电影下载_夺回夜晚 Take.Back.The.Night.2021.1080p.AMZN.WEBRip.DDP5.1.x264-THR 5.62 GB
悠悠MP4_MP4电影下载_夺回夜晚 Take.Back.The.Night.2021.1080p.AMZN.WEBRip.DDP5.1.x264-THR 5.62 GB

磁力链接

magnet:?xt=urn:btih:4d40169d2f85db9e8194441b73204669889e609f
上传的附件:
最新回复 (0)
返回
本站所有资源均收集自互联网,没有提供影片资源存储, 也未参与录制、上传,若本站收录的资源无意侵犯了您的权益, 请联系邮箱:gogoimgs#gmail.com(#[email protected])