[2022] [欧美] [恐怖] [x264-1080P] 吸血鬼抉择 Let.The.Wrong.One.In.2021.1080p.AMZN.WEBRip.DDP5.1.x264-THR 6.55 GB

uump4 1天前

悠悠MP4_MP4电影下载_吸血鬼抉择 Let.The.Wrong.One.In.2021.1080p.AMZN.WEBRip.DDP5.1.x264-THR 6.55 GB

◎片  名 吸血鬼抉择 Let the Wrong One In
◎年  代 2022
◎产  地 爱尔兰
◎类  别 喜剧 / 恐怖
◎语  言 
◎上映日期 
◎IMDb评分  5.4/10 from 572 users
◎IMDb链接  https://www.imdb.com/title/tt13188064/
◎豆瓣评分 /10 from 0 users
◎豆瓣链接 https://movie.douban.com/subject/34982254/
◎片  长 
◎导  演 
◎编  剧 
◎主  演 安东尼·海德 Anthony Head

◎简  介

  影片由爱尔兰电影制片人Conor McMahon执导,讲述了一个刚刚成为吸血鬼的吸血鬼在都柏林街头游荡的经历。本片讲述一位16岁男孩发现与他疏远的哥哥德科变成吸血鬼时,他面临着一个两难的境地:他是会因为血浓于水而冒着生命危险去帮助他的哥哥,还是会在他进一步传播感染之前,用木桩把他钉死。本片定于三月下旬在都柏林开始制作。                                    
      本片由Tailored Films与Workshed Films联合制作。



Video
ID           : 1
Format       : AVC
Format/Info      : Advanced Video Codec
Format profile       : [email protected]
Format settings      : CABAC / 4 Ref Frames
Format settings, CABAC       : Yes
Format settings, Reference frames    : 4 frames
Codec ID         : V_MPEG4/ISO/AVC
Duration         : 1 h 40 min
Bit rate mode        : Constant
Bit rate         : 8 682 kb/s
Nominal bit rate     : 10 000 kb/s
Width        : 1 920 pixels
Height       : 1 080 pixels
Display aspect ratio     : 16:9
Frame rate mode      : Constant
Frame rate       : 24.000 FPS
Color space      : YUV
Chroma subsampling       : 4:2:0
Bit depth        : 8 bits
Scan type        : Progressive
Bits/(Pixel*Frame)       : 0.174
Stream size      : 6.10 GiB (93%)
Default          : Yes
Forced       : No
Color range      : Limited
Color primaries      : BT.709
Transfer characteristics     : BT.709
Matrix coefficients      : BT.709

Audio
ID           : 2
Format       : E-AC-3
Format/Info      : Enhanced AC-3
Commercial name      : Dolby Digital Plus
Codec ID         : A_EAC3
Duration         : 1 h 40 min
Bit rate mode        : Constant
Bit rate         : 640 kb/s
Channel(s)       : 6 channels
Channel layout       : L R C LFE Ls Rs
Sampling rate        : 48.0 kHz
Frame rate       : 31.250 FPS (1536 SPF)
Compression mode     : Lossy
Stream size      : 460 MiB (7%)
Language         : English
Service kind         : Complete Main
Default          : Yes
Forced       : No

Text
ID           : 3
Format       : UTF-8
Codec ID         : S_TEXT/UTF8
Codec ID/Info        : UTF-8 Plain Text
Duration         : 1 h 36 min
Bit rate         : 56 b/s
Frame rate       : 0.223 FPS
Count of elements        : 1297
Stream size      : 39.9 KiB (0%)
Language         : English
Default          : No
Forced       : No



悠悠MP4_MP4电影下载_吸血鬼抉择 Let.The.Wrong.One.In.2021.1080p.AMZN.WEBRip.DDP5.1.x264-THR 6.55 GB
悠悠MP4_MP4电影下载_吸血鬼抉择 Let.The.Wrong.One.In.2021.1080p.AMZN.WEBRip.DDP5.1.x264-THR 6.55 GB
悠悠MP4_MP4电影下载_吸血鬼抉择 Let.The.Wrong.One.In.2021.1080p.AMZN.WEBRip.DDP5.1.x264-THR 6.55 GB

磁力链接

magnet:?xt=urn:btih:48d8199425bc8eabbf5f185e957d05d87cee5e14

上传的附件:
最新回复 (0)
返回
本站所有资源均收集自互联网,没有提供影片资源存储, 也未参与录制、上传,若本站收录的资源无意侵犯了您的权益, 请联系邮箱:gogoimgs#gmail.com(#[email protected])