[更早] [中国香港] [动作] [BD-Remux] 警察故事 Police.Story.1985.CHINESE.2160p.BluRay.REMUX.HEVC.DTS-HD.MA.5.1-FGT 65.27 GB

uump4 3天前

悠悠MP4_MP4电影下载_警察故事 Police.Story.1985.CHINESE.2160p.BluRay.REMUX.HEVC.DTS-HD.MA.5.1-FGT 65.27 GB

◎片  名 警察故事 / Police Story / Police Force
◎年  代 1985
◎产  地 中国香港
◎类  别 喜剧 / 动作 / 惊悚 / 犯罪
◎语  言 粤语
◎上映日期 1985-12-14(中国香港)
◎IMDb评分  7.5/10 from 36667 users
◎IMDb链接  https://www.imdb.com/title/tt0089374/
◎豆瓣评分 8.1/10 from 105699 users
◎豆瓣链接 https://movie.douban.com/subject/1400868/
◎片  长 101 分钟 / 106 分钟(日本加长版) / 99 分钟(英国) / 90 分钟(美国)
◎导  演 成龙 Jackie Chan
◎编  剧 邓景生 Edward Tang
       成龙 Jackie Chan
◎主  演 成龙 Jackie Chan
       林青霞 Brigitte Lin
       张曼玉 Maggie Cheung
       董骠 Bill Tung
       楚原 Yuen Chor
       曹查理 Charlie Cho
       汤镇业 Ken Tong
       刘雅丽 Chic Lau
       卢敏仪 Money Lo Man-Yee
       林国斌 Ben Lam
       刘晃世 Huang-Hsi Liu
       陈志辉 Chi Fai Chan
       吉恩·吉尔平 Jean Gilpin
       李健生 Chris Lee
       林富伟 Fu-wai Lam
       廖静妮 Jingni Liao
       曾楚霖 Choh-Lam Tsang
       林国雄 Lam Gwok-Hung
       黎小田 Siu-Tin Lei
       太保 Po Tai
       张冲 Paul Chang Chung
       刘志荣 Chi-Wing Lau
       陈全 Chuan Chen
       冯克安 Hark-On Fung
       火星 Mars

◎简  介

  受过特警训练的警察陈家驹(成龙)为人正直办案拼命,时常将女友(张曼玉)忽略。某次围剿行动中陈家驹拘捕了大毒枭朱滔,但因证人(朱滔的秘书)莎莲娜(林青霞)的突然失踪,未能将其绳之于法,陈家驹因此受降职处分。事后含恨在心的朱滔为了报复陈家驹,设计将其诱至囚禁莎莲娜的别墅,并派手下杀死一名警察嫁祸其身,令陈家驹在警方的通辑令下只能四处流亡。                                    
      而侥幸逃脱的莎莲娜明白到朱滔为人不择手段的本质,为求自保,冒险潜入朱滔办公室偷得证据,却被其手下追杀至商场,陈家驹及时赶到,与朱滔手下展开激战。

◎获奖情况

  第5届香港电影金像奖 (1986)
  最佳电影
  最佳导演(提名)
  成龙最佳男主角(提名)
  成龙最佳女主角(提名)
  林青霞最佳摄影(提名)
  张耀祖最佳剪接(提名)
  张耀宗最佳动作设计



Video
ID           : 1
ID in the original source medium     : 4113 (0x1011)
Format       : HEVC
Format/Info      : High Efficiency Video Coding
Format profile       : Main [email protected]@High
HDR format       : Dolby Vision, Version 1.0, dvhe.07.06, BL+EL+RPU, Blu-ray compatible / SMPTE ST 2086, HDR10 compatible
Codec ID         : V_MPEGH/ISO/HEVC
Duration         : 1 h 40 min
Bit rate         : 84.7 Mb/s
Width        : 3 840 pixels
Height       : 2 160 pixels
Display aspect ratio     : 16:9
Frame rate mode      : Constant
Frame rate       : 23.976 (24000/1001) FPS
Color space      : YUV
Chroma subsampling       : 4:2:0 (Type 2)
Bit depth        : 10 bits
Bits/(Pixel*Frame)       : 0.426
Stream size      : 59.5 GiB (91%)
Language         : English
Default          : No
Forced       : No
Color range      : Limited
Color primaries      : BT.2020
Transfer characteristics     : PQ
Matrix coefficients      : BT.2020 non-constant
Mastering display color primaries    : BT.2020
Mastering display luminance      : min: 0.0001 cd/m2, max: 1000 cd/m2
Original source medium       : Blu-ray

Audio #1
ID           : 2
ID in the original source medium     : 4353 (0x1101)
Format       : DTS XLL
Format/Info      : Digital Theater Systems
Commercial name      : DTS-HD Master Audio
Codec ID         : A_DTS
Duration         : 1 h 40 min
Bit rate mode        : Variable
Bit rate         : 4 184 kb/s
Channel(s)       : 6 channels
Channel layout       : C L R Ls Rs LFE
Sampling rate        : 48.0 kHz
Frame rate       : 93.750 FPS (512 SPF)
Bit depth        : 24 bits
Compression mode     : Lossless
Stream size      : 2.94 GiB (5%)
Title        : DTS-HD MA 5.1
Language         : Chinese
Default          : Yes
Forced       : No
Original source medium       : Blu-ray

Audio #2
ID           : 3
Format       : AC-3
Format/Info      : Audio Coding 3
Commercial name      : Dolby Digital
Codec ID         : A_AC3
Duration         : 1 h 40 min
Bit rate mode        : Constant
Bit rate         : 640 kb/s
Channel(s)       : 6 channels
Channel layout       : L R C LFE Ls Rs
Sampling rate        : 48.0 kHz
Frame rate       : 31.250 FPS (1536 SPF)
Compression mode     : Lossy
Stream size      : 460 MiB (1%)
Title        : DD 5.1
Language         : Chinese
Service kind         : Complete Main
Default          : No
Forced       : No

Audio #3
ID           : 4
ID in the original source medium     : 4352 (0x1100)
Format       : PCM
Format settings      : Little / Signed
Codec ID         : A_PCM/INT/LIT
Duration         : 1 h 40 min
Bit rate mode        : Constant
Bit rate         : 1 152 kb/s
Channel(s)       : 1 channel
Sampling rate        : 48.0 kHz
Frame rate       : 30.000 FPS (1600 SPF)
Bit depth        : 24 bits
Stream size      : 828 MiB (1%)
Title        : DD 1.0
Language         : Chinese
Default          : No
Forced       : No
Original source medium       : Blu-ray

Audio #4
ID           : 5
Format       : AC-3
Format/Info      : Audio Coding 3
Commercial name      : Dolby Digital
Codec ID         : A_AC3
Duration         : 1 h 40 min
Bit rate mode        : Constant
Bit rate         : 640 kb/s
Channel(s)       : 1 channel
Channel layout       : C
Sampling rate        : 48.0 kHz
Frame rate       : 31.250 FPS (1536 SPF)
Compression mode     : Lossy
Stream size      : 460 MiB (1%)
Title        : DD 1.0
Language         : Chinese
Service kind         : Complete Main
Default          : No
Forced       : No

Audio #5
ID           : 6
ID in the original source medium     : 4354 (0x1102)
Format       : PCM
Format settings      : Little / Signed
Codec ID         : A_PCM/INT/LIT
Duration         : 1 h 40 min
Bit rate mode        : Constant
Bit rate         : 768 kb/s
Channel(s)       : 1 channel
Sampling rate        : 48.0 kHz
Frame rate       : 30.000 FPS (1600 SPF)
Bit depth        : 16 bits
Stream size      : 552 MiB (1%)
Title        : LPCM 1.0
Language         : English
Default          : No
Forced       : No
Original source medium       : Blu-ray

Audio #6
ID           : 7
Format       : AC-3
Format/Info      : Audio Coding 3
Commercial name      : Dolby Digital
Codec ID         : A_AC3
Duration         : 1 h 40 min
Bit rate mode        : Constant
Bit rate         : 640 kb/s
Channel(s)       : 1 channel
Channel layout       : C
Sampling rate        : 48.0 kHz
Frame rate       : 31.250 FPS (1536 SPF)
Compression mode     : Lossy
Stream size      : 460 MiB (1%)
Title        : DD 1.0
Language         : English
Service kind         : Complete Main
Default          : No
Forced       : No

Audio #7
ID           : 8
ID in the original source medium     : 4355 (0x1103)
Format       : AC-3
Format/Info      : Audio Coding 3
Commercial name      : Dolby Digital
Codec ID         : A_AC3
Duration         : 1 h 40 min
Bit rate mode        : Constant
Bit rate         : 112 kb/s
Channel(s)       : 2 channels
Channel layout       : L R
Sampling rate        : 48.0 kHz
Frame rate       : 31.250 FPS (1536 SPF)
Compression mode     : Lossy
Stream size      : 80.5 MiB (0%)
Title        : DD 2.0
Language         : English
Service kind         : Complete Main
Default          : No
Forced       : No
Original source medium       : Blu-ray

Audio #8
ID           : 9
ID in the original source medium     : 4356 (0x1104)
Format       : AC-3
Format/Info      : Audio Coding 3
Commercial name      : Dolby Digital
Codec ID         : A_AC3
Duration         : 1 h 40 min
Bit rate mode        : Constant
Bit rate         : 112 kb/s
Channel(s)       : 2 channels
Channel layout       : L R
Sampling rate        : 48.0 kHz
Frame rate       : 31.250 FPS (1536 SPF)
Compression mode     : Lossy
Stream size      : 80.5 MiB (0%)
Title        : DD 2.0
Language         : English
Service kind         : Complete Main
Default          : No
Forced       : No
Original source medium       : Blu-ray

Text #1
ID           : 10
Format       : UTF-8
Codec ID         : S_TEXT/UTF8
Codec ID/Info        : UTF-8 Plain Text
Duration         : 1 h 38 min
Bit rate         : 52 b/s
Frame rate       : 0.179 FPS
Count of elements        : 1057
Stream size      : 37.9 KiB (0%)
Language         : English
Default          : Yes
Forced       : No

Text #2
ID           : 11
Format       : UTF-8
Codec ID         : S_TEXT/UTF8
Codec ID/Info        : UTF-8 Plain Text
Duration         : 1 h 38 min
Bit rate         : 52 b/s
Frame rate       : 0.179 FPS
Count of elements        : 1057
Stream size      : 37.9 KiB (0%)
Title        : SDH
Language         : English
Default          : No
Forced       : No

Text #3
ID           : 12
ID in the original source medium     : 4768 (0x12A0)
Format       : PGS
Muxing mode      : zlib
Codec ID         : S_HDMV/PGS
Codec ID/Info        : Picture based subtitle format used on BDs/HD-DVDs
Duration         : 1 h 38 min
Bit rate         : 32.9 kb/s
Frame rate       : 0.355 FPS
Count of elements        : 2096
Stream size      : 23.2 MiB (0%)
Language         : English
Default          : No
Forced       : No
Original source medium       : Blu-ray

Menu
00:00:00.000         : en:Chapter 01
00:06:08.659         : en:Chapter 02
00:12:16.861         : en:Chapter 03
00:17:16.368         : en:Chapter 04
00:25:52.300         : en:Chapter 05
00:29:33.021         : en:Chapter 06
00:35:25.581         : en:Chapter 07
00:40:32.972         : en:Chapter 08
00:45:32.646         : en:Chapter 09
00:50:04.584         : en:Chapter 10
01:00:01.180         : en:Chapter 11
01:04:53.598         : en:Chapter 12
01:10:38.943         : en:Chapter 13
01:16:09.273         : en:Chapter 14
01:19:35.187         : en:Chapter 15
01:25:14.400         : en:Chapter 16
01:34:10.478         : en:Chapter 17
01:37:46.819         : en:Chapter 18



悠悠MP4_MP4电影下载_警察故事 Police.Story.1985.CHINESE.2160p.BluRay.REMUX.HEVC.DTS-HD.MA.5.1-FGT 65.27 GB
悠悠MP4_MP4电影下载_警察故事 Police.Story.1985.CHINESE.2160p.BluRay.REMUX.HEVC.DTS-HD.MA.5.1-FGT 65.27 GB
悠悠MP4_MP4电影下载_警察故事 Police.Story.1985.CHINESE.2160p.BluRay.REMUX.HEVC.DTS-HD.MA.5.1-FGT 65.27 GB

磁力链接

magnet:?xt=urn:btih:a1c3ec8cecc271c8ef87f4f65e26fb009302e73d

上传的附件:
最新回复 (0)
返回
本站所有资源均收集自互联网,没有提供影片资源存储, 也未参与录制、上传,若本站收录的资源无意侵犯了您的权益, 请联系邮箱:gogoimgs#gmail.com(#[email protected])