[更早] [中国香港] 警察故事续集 Police.Story.2.1988.CHINESE.2160p.BluRay.REMUX.HEVC.DTS-HD.MA.5.1-FGT 64.91 GB

uump4 3天前

悠悠MP4_MP4电影下载_警察故事续集 Police.Story.2.1988.CHINESE.2160p.BluRay.REMUX.HEVC.DTS-HD.MA.5.1-FGT 64.91 GB

◎片  名 警察故事续集 警察故事續集 / 警察故事2 / Police Story II
◎年  代 1988
◎产  地 中国香港
◎类  别 喜剧 / 动作 / 犯罪
◎语  言 粤语
◎上映日期 1988-08-20(中国香港)
◎IMDb评分  7.1/10 from 20091 users
◎IMDb链接  https://www.imdb.com/title/tt0095403/
◎豆瓣评分 7.7/10 from 56610 users
◎豆瓣链接 https://movie.douban.com/subject/1304726/
◎片  长 101分钟 / 122分钟(DVD版)
◎导  演 成龙 Jackie Chan
◎编  剧 成龙 Jackie Chan
      邓景生 Edward Tang
◎主  演 成龙 Jackie Chan
      张曼玉 Maggie Cheung
      陈国新 Dennis Chan
      楚原 Yuen Chor
      曹查理 Charlie Cho
      叶晨 San Yip
      张午郎 John Cheung
      梁韵蕊 Anglie Leung
      黄曼凝 Isabella Wong
      王伟 Wai Wong
      董骠 Bill Tung
      麦天恩 Mak Tin Yan
      李忠志 Chung Chi Li
      韩春 Chun Han
      李华干 Wah-Kon Lee
      甘国卫 Sam Kam
      王文骏 Man-Chun Wong
      商天娥 Tin-Ngoh Seung
      詹秉熙 Bing Hei Chim
      林国斌 Ben Lam
      刘青云 Sean Lau
      江欣燕 Elvina Kong
      关山 Shan Kwan
      午马 Wu Ma
      郭锦恩 Crystal Kwok
      火星 Mars
      卢惠光 Ken Lo
      楼南光 Billy Lau
      黎强权 Benny Lai Keung-Kuen
      叶荣祖 Wing-Cho Yip
      周文健 Michael Chow Man-Kin
      太保 Po Tai
      焦姣 Chiao Chiao
      刘兆铭 Lau Siu Ming
      戴志伟 Chi Wai Tai
      吴声发 Sing Fat Ng
      何家劲 Kenny Ho

◎简  介

  英雄警察陈家驹(成龙 饰)又回来了。不过,性格火爆、直言不讳的他这次因为不满意上司放走了一个极其危险的重犯而和上司吵翻了,愤然辞职。脱离了警察生活的家驹和女友去旅行期间,一间电话公司遭到了炸弹恐吓,本性难移的家驹马上赶到了现场,着手调查案件。
 岂料一波未平,一波又起。这个炸弹狂徒竟然炸毁了警局的大门,还绑架了家驹的女友,要求家驹携带大量赎款前往货仓交换人质。当家驹身带巨款抵达货仓时,发现这里已经布满了炸弹……

◎获奖情况

  第25届台北金马影展 (1988)
  金马奖 最佳剧情片(提名)
  金马奖 最佳美术设计
  黄锐民

  第8届香港电影金像奖 (1989)
  最佳动作设计



Video
ID        : 1
ID in the original source medium  : 4113 (0x1011)
Format       : HEVC
Format/Info      : High Efficiency Video Coding
Format profile      : Main [email protected]@High
HDR format       : Dolby Vision, Version 1.0, dvhe.07.06, BL+EL+RPU, Blu-ray compatible / SMPTE ST 2086, HDR10 compatible
Codec ID       : V_MPEGH/ISO/HEVC
Duration       : 2 h 1 min
Bit rate       : 69.0 Mb/s
Width        : 3 840 pixels
Height       : 2 160 pixels
Display aspect ratio     : 16:9
Frame rate mode      : Constant
Frame rate       : 23.976 (24000/1001) FPS
Color space      : YUV
Chroma subsampling     : 4:2:0 (Type 2)
Bit depth       : 10 bits
Bits/(Pixel*Frame)     : 0.347
Stream size      : 58.7 GiB (90%)
Language       : English
Default       : No
Forced       : No
Color range      : Limited
Color primaries      : BT.2020
Transfer characteristics    : PQ
Matrix coefficients     : BT.2020 non-constant
Mastering display color primaries  : BT.2020
Mastering display luminance   : min: 0.0001 cd/m2, max: 1000 cd/m2
Original source medium    : Blu-ray

Audio #1
ID        : 2
ID in the original source medium  : 4353 (0x1101)
Format       : DTS XLL
Format/Info      : Digital Theater Systems
Commercial name      : DTS-HD Master Audio
Codec ID       : A_DTS
Duration       : 2 h 1 min
Bit rate mode      : Variable
Bit rate       : 1 965 kb/s
Channel(s)       : 6 channels
Channel layout      : C L R Ls Rs LFE
Sampling rate      : 48.0 kHz
Frame rate       : 93.750 FPS (512 SPF)
Bit depth       : 24 bits
Compression mode     : Lossless
Stream size      : 1.67 GiB (3%)
Title        : DTS-HD MA 5.1
Language       : Chinese
Default       : Yes
Forced       : No
Original source medium    : Blu-ray

Audio #2
ID        : 3
Format       : AC-3
Format/Info      : Audio Coding 3
Commercial name      : Dolby Digital
Codec ID       : A_AC3
Duration       : 2 h 1 min
Bit rate mode      : Constant
Bit rate       : 640 kb/s
Channel(s)       : 6 channels
Channel layout      : L R C LFE Ls Rs
Sampling rate      : 48.0 kHz
Frame rate       : 31.250 FPS (1536 SPF)
Compression mode     : Lossy
Stream size      : 558 MiB (1%)
Title        : DD 5.1
Language       : Chinese
Service kind      : Complete Main
Default       : No
Forced       : No

Audio #3
ID        : 4
ID in the original source medium  : 4352 (0x1100)
Format       : PCM
Format settings      : Little / Signed
Codec ID       : A_PCM/INT/LIT
Duration       : 2 h 1 min
Bit rate mode      : Constant
Bit rate       : 1 152 kb/s
Channel(s)       : 1 channel
Sampling rate      : 48.0 kHz
Frame rate       : 30.000 FPS (1600 SPF)
Bit depth       : 24 bits
Stream size      : 1 004 MiB (2%)
Title        : DD 1.0
Language       : Chinese
Default       : No
Forced       : No
Original source medium    : Blu-ray

Audio #4
ID        : 5
Format       : AC-3
Format/Info      : Audio Coding 3
Commercial name      : Dolby Digital
Codec ID       : A_AC3
Duration       : 2 h 1 min
Bit rate mode      : Constant
Bit rate       : 640 kb/s
Channel(s)       : 1 channel
Channel layout      : C
Sampling rate      : 48.0 kHz
Frame rate       : 31.250 FPS (1536 SPF)
Compression mode     : Lossy
Stream size      : 558 MiB (1%)
Title        : DD 1.0
Language       : Chinese
Service kind      : Complete Main
Default       : No
Forced       : No

Audio #5
ID        : 6
ID in the original source medium  : 4354 (0x1102)
Format       : DTS XLL
Format/Info      : Digital Theater Systems
Commercial name      : DTS-HD Master Audio
Codec ID       : A_DTS
Duration       : 2 h 1 min
Bit rate mode      : Variable
Bit rate       : 1 981 kb/s
Channel(s)       : 6 channels
Channel layout      : C L R Ls Rs LFE
Sampling rate      : 48.0 kHz
Frame rate       : 93.750 FPS (512 SPF)
Bit depth       : 24 bits
Compression mode     : Lossless
Stream size      : 1.69 GiB (3%)
Title        : DTS-HD MA 5.1
Language       : English
Default       : No
Forced       : No
Original source medium    : Blu-ray

Audio #6
ID        : 7
Format       : AC-3
Format/Info      : Audio Coding 3
Commercial name      : Dolby Digital
Codec ID       : A_AC3
Duration       : 2 h 1 min
Bit rate mode      : Constant
Bit rate       : 640 kb/s
Channel(s)       : 6 channels
Channel layout      : L R C LFE Ls Rs
Sampling rate      : 48.0 kHz
Frame rate       : 31.250 FPS (1536 SPF)
Compression mode     : Lossy
Stream size      : 558 MiB (1%)
Title        : DD 5.1
Language       : English
Service kind      : Complete Main
Default       : No
Forced       : No

Audio #7
ID        : 8
ID in the original source medium  : 4355 (0x1103)
Format       : AC-3
Format/Info      : Audio Coding 3
Commercial name      : Dolby Digital
Codec ID       : A_AC3
Duration       : 2 h 1 min
Bit rate mode      : Constant
Bit rate       : 112 kb/s
Channel(s)       : 2 channels
Channel layout      : L R
Sampling rate      : 48.0 kHz
Frame rate       : 31.250 FPS (1536 SPF)
Compression mode     : Lossy
Stream size      : 97.6 MiB (0%)
Title        : DD 2.0
Language       : English
Service kind      : Complete Main
Default       : No
Forced       : No
Original source medium    : Blu-ray

Audio #8
ID        : 9
ID in the original source medium  : 4356 (0x1104)
Format       : AC-3
Format/Info      : Audio Coding 3
Commercial name      : Dolby Digital
Codec ID       : A_AC3
Duration       : 2 h 1 min
Bit rate mode      : Constant
Bit rate       : 112 kb/s
Channel(s)       : 2 channels
Channel layout      : L R
Sampling rate      : 48.0 kHz
Frame rate       : 31.250 FPS (1536 SPF)
Compression mode     : Lossy
Stream size      : 97.6 MiB (0%)
Title        : DD 2.0
Language       : English
Service kind      : Complete Main
Default       : No
Forced       : No
Original source medium    : Blu-ray

Text #1
ID        : 10
Format       : UTF-8
Codec ID       : S_TEXT/UTF8
Codec ID/Info      : UTF-8 Plain Text
Duration       : 2 h 0 min
Bit rate       : 49 b/s
Frame rate       : 0.190 FPS
Count of elements     : 1371
Stream size      : 43.4 KiB (0%)
Language       : English
Default       : Yes
Forced       : No

Text #2
ID        : 11
Format       : UTF-8
Codec ID       : S_TEXT/UTF8
Codec ID/Info      : UTF-8 Plain Text
Duration       : 2 h 0 min
Bit rate       : 49 b/s
Frame rate       : 0.190 FPS
Count of elements     : 1371
Stream size      : 43.4 KiB (0%)
Title        : SDH
Language       : English
Default       : No
Forced       : No

Text #3
ID        : 12
ID in the original source medium  : 4768 (0x12A0)
Format       : PGS
Muxing mode      : zlib
Codec ID       : S_HDMV/PGS
Codec ID/Info      : Picture based subtitle format used on BDs/HD-DVDs
Duration       : 2 h 0 min
Bit rate       : 31.5 kb/s
Frame rate       : 0.382 FPS
Count of elements     : 2756
Stream size      : 27.1 MiB (0%)
Language       : English
Default       : No
Forced       : No
Original source medium    : Blu-ray

Menu
00:00:00.000      : en:Chapter 01
00:10:22.496      : en:Chapter 02
00:20:17.174      : en:Chapter 03
00:30:21.486      : en:Chapter 04
00:40:07.071      : en:Chapter 05
00:50:40.454      : en:Chapter 06
01:00:34.589      : en:Chapter 07
01:11:05.761      : en:Chapter 08
01:21:12.200      : en:Chapter 09
01:32:25.248      : en:Chapter 10
01:43:29.745      : en:Chapter 11
01:52:25.947      : en:Chapter 12
01:58:59.882      : en:Chapter 13


悠悠MP4_MP4电影下载_警察故事续集 Police.Story.2.1988.CHINESE.2160p.BluRay.REMUX.HEVC.DTS-HD.MA.5.1-FGT 64.91 GB
悠悠MP4_MP4电影下载_警察故事续集 Police.Story.2.1988.CHINESE.2160p.BluRay.REMUX.HEVC.DTS-HD.MA.5.1-FGT 64.91 GB
悠悠MP4_MP4电影下载_警察故事续集 Police.Story.2.1988.CHINESE.2160p.BluRay.REMUX.HEVC.DTS-HD.MA.5.1-FGT 64.91 GB

磁力链接

magnet:?xt=urn:btih:49a3686d0963b7e8a731ced0a33f7b72f0afd395
上传的附件:
最新回复 (0)
返回
本站所有资源均收集自互联网,没有提供影片资源存储, 也未参与录制、上传,若本站收录的资源无意侵犯了您的权益, 请联系邮箱:gogoimgs#gmail.com(#[email protected])