[2020] [欧美] [动画] [x264-720P] 圣诞颂歌 A.Christmas.Carol.2020.720p.BluRay.x264-GAZER 2.77 GB

uump4 1天前

悠悠MP4_MP4电影下载_圣诞颂歌 A.Christmas.Carol.2020.720p.BluRay.x264-GAZER 2.77 GB

◎片  名 圣诞颂歌 A Christmas Carol
◎年  代 2020
◎产  地 英国
◎类  别 剧情 / 动画
◎语  言 英语
◎上映日期 2020-12-04(英国)
◎IMDb评分  4.9/10 from 282 users
◎IMDb链接  https://www.imdb.com/title/tt9136058/
◎豆瓣评分 /10 from 0 users
◎豆瓣链接 https://movie.douban.com/subject/30352596/
◎片  长 94分钟
◎导  演 
◎编  剧 查尔斯·狄更斯 Charles Dickens
◎主  演 安迪·瑟金斯 Andy Serkis
       凯瑞·穆里根 Carey Mulligan
       马丁·弗瑞曼 Martin Freeman
       丹尼尔·卡卢亚 Daniel Kaluuya
       莱斯莉·卡伦 Leslie Caron
       简·菲利普斯 Siân Phillips
       西蒙·拉塞尔·比尔 Simon Russell Beale

◎简  介

  新版[圣诞颂歌]将在本月美国电影交易市场(AFM)预售,国际销售由Saboteur Media负责。影片改编自狄更斯同名原著,从维多利亚时代一个家庭准备一年一度《圣诞颂歌》玩具表演讲起。全英伦配音卡司包括凯瑞·穆里根、丹尼尔·卡卢亚、安迪·瑟金斯、马丁·弗瑞曼。大卫·莫里斯、杰奎伊·莫里斯([麦库林])执导。该片已于八月在英国、乌克兰完成拍摄,明年年中上映。



Video
ID           : 1
Format       : AVC
Format/Info      : Advanced Video Codec
Format profile       : [email protected]
Format settings      : CABAC / 12 Ref Frames
Format settings, CABAC       : Yes
Format settings, Reference frames    : 12 frames
Codec ID         : V_MPEG4/ISO/AVC
Duration         : 1 h 36 min
Bit rate         : 3 458 kb/s
Width        : 1 280 pixels
Height       : 536 pixels
Display aspect ratio     : 2.40:1
Frame rate mode      : Constant
Frame rate       : 24.000 FPS
Color space      : YUV
Chroma subsampling       : 4:2:0
Bit depth        : 8 bits
Scan type        : Progressive
Bits/(Pixel*Frame)       : 0.210
Stream size      : 2.33 GiB (84%)
Writing library      : x264 core 164 r3095 baee400
Encoding settings        : cabac=1 / ref=12 / deblock=1:-3:-3 / analyse=0x3:0x133 / me=umh / subme=10 / psy=1 / psy_rd=1.20:0.00 / mixed_ref=1 / me_range=24 / chroma_me=1 / trellis=2 / 8x8dct=1 / cqm=0 / deadzone=21,11 / fast_pskip=0 / chroma_qp_offset=-2 / threads=17 / lookahead_threads=2 / sliced_threads=0 / nr=0 / decimate=0 / interlaced=0 / bluray_compat=0 / constrained_intra=0 / bframes=8 / b_pyramid=2 / b_adapt=2 / b_bias=0 / direct=3 / weightb=1 / open_gop=0 / weightp=2 / keyint=250 / keyint_min=24 / scenecut=40 / intra_refresh=0 / rc_lookahead=60 / rc=crf / mbtree=1 / crf=15.0 / qcomp=0.60 / qpmin=0 / qpmax=69 / qpstep=4 / ip_ratio=1.40 / aq=3:0.90
Default          : Yes
Forced       : No
Color range      : Limited
Matrix coefficients      : BT.709

Audio
ID           : 2
Format       : AC-3
Format/Info      : Audio Coding 3
Commercial name      : Dolby Digital
Codec ID         : A_AC3
Duration         : 1 h 36 min
Bit rate mode        : Constant
Bit rate         : 640 kb/s
Channel(s)       : 6 channels
Channel layout       : L R C LFE Ls Rs
Sampling rate        : 48.0 kHz
Frame rate       : 31.250 FPS (1536 SPF)
Compression mode     : Lossy
Stream size      : 441 MiB (16%)
Language         : English
Service kind         : Complete Main
Default          : Yes
Forced       : No

Text
ID           : 3
Format       : PGS
Muxing mode      : zlib
Codec ID         : S_HDMV/PGS
Codec ID/Info        : Picture based subtitle format used on BDs/HD-DVDs
Duration         : 1 h 33 min
Bit rate         : 54.8 kb/s
Count of elements        : 3232
Stream size      : 36.7 MiB (1%)
Title        : SDH
Language         : English
Default          : No
Forced       : No

Menu
00:00:00.000         : Chapter 01
00:07:43.667         : Chapter 02
00:23:45.792         : Chapter 03
00:35:59.792         : Chapter 04
00:49:25.167         : Chapter 05
01:01:33.042         : Chapter 06
01:15:12.792         : Chapter 07
01:27:00.125         : Chapter 08
01:36:23.125         : Chapter 09



Screenshots:
悠悠MP4_MP4电影下载_圣诞颂歌 A.Christmas.Carol.2020.720p.BluRay.x264-GAZER 2.77 GB
A.Christmas.Carol.2020.720p.BluRay.x264-GAZER

iMDB_______:      https://www.imdb.com/title/tt9136058
RUNTiME____:      1 h 36 min
ViDEO______:      CRF 15 @ 3458 Kbps
SOURCE_____:      21676 Kbps
RESOLUTiON_:      1280x536
FPS________:      24 fps
AUDiO______:      English AC-3 5.1 640 Kbps
SiZE_______:      2841 MB
SUBTiTLES__:      English

磁力链接

magnet:?xt=urn:btih:0ebcd1aa2801ae74e8c2ef2a867f5c5cd594618d

上传的附件:
最新回复 (0)
返回
本站所有资源均收集自互联网,没有提供影片资源存储, 也未参与录制、上传,若本站收录的资源无意侵犯了您的权益, 请联系邮箱:gogoimgs#gmail.com(#[email protected])