[2019] [欧美] [惊悚] [x265-4K-HDR] 巨鳄风暴 Crawl.2019.2160p.UHD.BluRay.x265.10bit.HDR.DDP5.1-RARBG 5.30 GB

uump4 2天前

悠悠MP4_MP4电影下载_巨鳄风暴 Crawl.2019.2160p.UHD.BluRay.x265.10bit.HDR.DDP5.1-RARBG 5.30 GB

◎片  名 巨鳄风暴 Crawl / 噬逃险鳄(港) / 鳄魔(台) / 爬行
◎年  代 2019
◎产  地 美国 / 塞尔维亚 / 加拿大
◎类  别 剧情 / 惊悚 / 灾难
◎语  言 英语
◎上映日期 2019-09-12(中国大陆) / 2019-07-12(美国)
◎IMDb评分  6.1/10 from 84227 users
◎IMDb链接  https://www.imdb.com/title/tt8364368/
◎豆瓣评分 5.7/10 from 48727 users
◎豆瓣链接 https://movie.douban.com/subject/30210700/
◎片  长 87分钟
◎导  演 亚历山大·阿嘉 Alexandre Aja
◎编  剧 迈克尔·拉斯姆森 Michael Rasmussen
       肖恩·拉斯姆森 Shawn Rasmussen
◎主  演 卡雅·斯考达里奥 Kaya Scodelario
       巴里·佩珀 Barry Pepper
       罗斯·安德森 Ross Anderson
       安森·布恩 Anson Boon
       乔治·索纳 George Somner
       阿米‧梅特卡夫 Ami Metcalf
       何塞‧帕尔马 Jose Palma
       莫菲德·克拉克 Morfydd Clark
       安娜玛丽亚·塞尔达 Annamaria Serda
       萨凡纳·斯泰恩 Savannah Steyn
       乔瓦娜·德拉加 Jovana Dragas
       柯林·麦克法兰 Colin McFarlane
       蒂娜‧普里比切维奇 Tina Pribicevic
       可可 Cso-Cso

◎简  介

  故事发生在位于美国佛罗里达州的一座小镇内,一场猛烈的飓风在居民们措手不及的情况下袭击了该小镇。海丽(卡雅·斯考达里奥 Kaya Scodelario 饰)是一名游泳运动员,在训练中,她接到了姐姐打来的电话,姐姐告诉她,她们的父亲戴夫(巴里·佩珀 Barry Pepper 饰)失踪了。                                    
      政府命令小镇上所有的居民们都从家中撤离,但是海丽无法弃父亲于不顾,擅自折返来到了父亲的家中,果不其然,在地下室里,海丽找到了身受重伤的父亲,如果不是她即使出现,那么戴夫将必死无疑。现在,父女两人需要面对的,是逐渐被洪水填满的地下室,但很快,海丽就意识到,他们的对手并非这么简单,有一些邪恶而又凶暴的黑影隐藏在水面之下。



Video
ID           : 1
Format       : HEVC
Format/Info      : High Efficiency Video Coding
Format profile       : Main [email protected]@Main
HDR format       : SMPTE ST 2086, HDR10 compatible
Codec ID         : V_MPEGH/ISO/HEVC
Duration         : 1 h 27 min
Bit rate         : 8 026 kb/s
Width        : 3 840 pixels
Height       : 1 608 pixels
Display aspect ratio     : 2.40:1
Frame rate mode      : Constant
Frame rate       : 23.976 (24000/1001) FPS
Color space      : YUV
Chroma subsampling       : 4:2:0
Bit depth        : 10 bits
Bits/(Pixel*Frame)       : 0.054
Stream size      : 4.91 GiB (93%)
Writing library      : x265 3.5+rarbg-HDR-38-20255e6:[Linux][clang 16.0.0][64 bit] 10bit
Encoding settings        : cpuid=1111039 / frame-threads=6 / wpp / no-pmode / no-pme / no-psnr / no-ssim / log-level=2 / input-csp=1 / input-res=3840x1608 / interlace=0 / total-frames=0 / level-idc=51 / high-tier=1 / uhd-bd=0 / ref=4 / no-allow-non-conformance / repeat-headers / annexb / aud / no-eob / no-eos / no-hrd / info / hash=0 / no-temporal-layers / no-open-gop / min-keyint=1 / keyint=24 / gop-lookahead=0 / bframes=4 / b-adapt=2 / b-pyramid / bframe-bias=0 / rc-lookahead=25 / lookahead-slices=4 / scenecut=40 / no-hist-scenecut / radl=0 / no-splice / no-intra-refresh / ctu=64 / min-cu-size=8 / rect / no-amp / max-tu-size=32 / tu-inter-depth=1 / tu-intra-depth=1 / limit-tu=0 / rdoq-level=2 / dynamic-rd=0.00 / no-ssim-rd / signhide / no-tskip / nr-intra=0 / nr-inter=0 / no-constrained-intra / strong-intra-smoothing / max-merge=3 / limit-refs=3 / no-limit-modes / me=3 / subme=3 / merange=57 / temporal-mvp / no-frame-dup / no-hme / weightp / no-weightb / no-analyze-src-pics / deblock=0:0 / no-sao / no-sao-non-deblock / rd=4 / selective-sao=0 / no-early-skip / rskip / no-fast-intra / no-tskip-fast / no-cu-lossless / no-b-intra / no-splitrd-skip / rdpenalty=0 / psy-rd=2.00 / psy-rdoq=1.00 / no-rd-refine / no-lossless / cbqpoffs=0 / crqpoffs=0 / rc=abr / bitrate=8000 / qcomp=0.60 / qpstep=4 / stats-write=0 / stats-read=2 / cplxblur=20.0 / qblur=0.5 / ipratio=1.40 / pbratio=1.30 / aq-mode=1 / aq-strength=1.00 / cutree / zone-count=0 / no-strict-cbr / qg-size=32 / no-rc-grain / qpmax=69 / qpmin=0 / no-const-vbv / sar=1 / overscan=0 / videoformat=5 / range=0 / colorprim=9 / transfer=16 / colormatrix=9 / chromaloc=0 / display-window=0 / master-display=G(13250,34500)B(7500,3000)R(34000,16000)WP(15635,16450)L(10000000,1) / cll=0,0 / min-luma=0 / max-luma=1023 / log2-max-poc-lsb=8 / vui-timing-info / vui-hrd-info / slices=1 / no-opt-qp-pps / no-opt-ref-list-length-pps / no-multi-pass-opt-rps / scenecut-bias=0.05 / hist-threshold=0.03 / no-opt-cu-delta-qp / no-aq-motion / hdr10 / hdr10-opt / no-dhdr10-opt / no-idr-recovery-sei / analysis-reuse-level=0 / analysis-save-reuse-level=0 / analysis-load-reuse-level=0 / scale-factor=0 / refine-intra=0 / refine-inter=0 / refine-mv=1 / refine-ctu-distortion=0 / no-limit-sao / ctu-info=0 / no-lowpass-dct / refine-analysis-type=0 / copy-pic=1 / max-ausize-factor=1.0 / no-dynamic-refine / no-single-sei / no-hevc-aq / no-svt / no-field / qp-adaptation-range=1.00 / scenecut-aware-qp=0conformance-window-offsets / right=0 / bottom=0 / decoder-max-rate=0 / no-vbv-live-multi-pass
Default          : Yes
Forced       : No
Color range      : Limited
Color primaries      : BT.2020
Transfer characteristics     : PQ
Matrix coefficients      : BT.2020 non-constant
Mastering display color primaries    : Display P3
Mastering display luminance      : min: 0.0001 cd/m2, max: 1000 cd/m2

Audio
ID           : 2
Format       : E-AC-3
Format/Info      : Enhanced AC-3
Commercial name      : Dolby Digital Plus
Codec ID         : A_EAC3
Duration         : 1 h 27 min
Bit rate mode        : Constant
Bit rate         : 640 kb/s
Channel(s)       : 6 channels
Channel layout       : L R C LFE Ls Rs
Sampling rate        : 48.0 kHz
Frame rate       : 31.250 FPS (1536 SPF)
Compression mode     : Lossy
Stream size      : 401 MiB (7%)
Title        : English DDP 5.1
Language         : English
Service kind         : Complete Main
Default          : Yes
Forced       : No

Text #1
ID           : 3
Format       : UTF-8
Codec ID         : S_TEXT/UTF8
Codec ID/Info        : UTF-8 Plain Text
Duration         : 1 h 25 min
Bit rate         : 24 b/s
Count of elements        : 641
Stream size      : 15.5 KiB (0%)
Title        : English SRT
Language         : English
Default          : Yes
Forced       : No

Text #2
ID           : 4
Format       : UTF-8
Codec ID         : S_TEXT/UTF8
Codec ID/Info        : UTF-8 Plain Text
Duration         : 1 h 25 min
Bit rate         : 30 b/s
Count of elements        : 832
Stream size      : 18.8 KiB (0%)
Title        : English SDH SRT
Language         : English
Default          : No
Forced       : No

Menu
00:00:00.000         : en:Chapter 01
00:07:52.805         : en:Chapter 02
00:15:17.166         : en:Chapter 03
00:22:16.460         : en:Chapter 04
00:34:43.915         : en:Chapter 05
00:42:16.283         : en:Chapter 06
00:50:14.219         : en:Chapter 07
00:57:14.222         : en:Chapter 08
01:03:52.620         : en:Chapter 09
01:08:57.299         : en:Chapter 10
01:16:37.426         : en:Chapter 11
01:23:11.569         : en:Chapter 12



悠悠MP4_MP4电影下载_巨鳄风暴 Crawl.2019.2160p.UHD.BluRay.x265.10bit.HDR.DDP5.1-RARBG 5.30 GB
悠悠MP4_MP4电影下载_巨鳄风暴 Crawl.2019.2160p.UHD.BluRay.x265.10bit.HDR.DDP5.1-RARBG 5.30 GB
悠悠MP4_MP4电影下载_巨鳄风暴 Crawl.2019.2160p.UHD.BluRay.x265.10bit.HDR.DDP5.1-RARBG 5.30 GB

磁力链接

magnet:?xt=urn:btih:bcc87473e836c925b9bebed9f8298484d13eb777

上传的附件:
最新回复 (0)
返回
本站所有资源均收集自互联网,没有提供影片资源存储, 也未参与录制、上传,若本站收录的资源无意侵犯了您的权益, 请联系邮箱:gogoimgs#gmail.com(#[email protected])