[更早] [欧美] [奇幻] [x265-4K-HDR] 吵闹鬼 Poltergeist.1982.2160p.UHD.BluRay.x265.10bit.HDR.DTS-HD.MA.5.1-RARBG 9.50 GB

uump4 2天前

悠悠MP4_MP4电影下载_吵闹鬼 Poltergeist.1982.2160p.UHD.BluRay.x265.10bit.HDR.DTS-HD.MA.5.1-RARBG 9.50 GB

◎片  名 吵闹鬼 Poltergeist / 鬼驱人 / 鬼哭神嚎
◎年  代 1982
◎产  地 美国
◎类  别 恐怖 / 奇幻
◎语  言 英语
◎上映日期 1982-06-04(美国)
◎IMDb评分  7.3/10 from 161864 users
◎IMDb链接  https://www.imdb.com/title/tt0084516/
◎豆瓣评分 6.8/10 from 2186 users
◎豆瓣链接 https://movie.douban.com/subject/1293042/
◎片  长 114 分钟
◎导  演 托比·霍珀 Tobe Hooper
       迈克尔·卡恩 Michael Kahn
◎编  剧 史蒂文·斯皮尔伯格 Steven Spielberg
◎主  演 格雷格·T·尼尔森 Craig T. Nelson
       乔贝兹·威廉姆斯 JoBeth Williams
       比阿特丽斯·斯特雷特 Beatrice Straight
       多米妮克·邓恩 Dominique Dunne
       奥利弗·罗宾斯 Oliver Robins
       赛尔达·鲁宾斯特恩 Zelda Rubinstein
       詹姆斯·凯伦 James Karen
       海瑟·欧罗克 Heather O'Rourke
       Michael McManus Michael McManus
       维吉妮娅·凯泽 Virginia Kiser
       理查德·劳森 Richard Lawson
       卢·佩里曼 Lou Perryman
       德克·布罗克 Dirk Blocker
       阿兰·格拉夫 Allan Graf

◎简  介

  事业有成、意气风发的史蒂文•弗瑞林(Craig T. Nelson 饰)带着妻子戴安(JoBeth Williams 饰)和三个孩子搬进了加利福尼亚某郊外社区。但在入住不久,怪事便频繁发生。先是小女儿卡萝(Heather O'Rourke 饰)梦游,对着自动开启漫屏雪花的电视机自言自语。接着便又不明物体从电视机中飘出,莫名的地震,破碎的玻璃杯……如此种种,搅得弗瑞林一家坐卧不定。过了不久,恐怖事件逐渐升级,卡萝最终竟被拉入电视机中……                                    
      本片荣获1983年美国科幻恐怖电影节最佳恐怖片、最佳化装和最佳女配角(Zelda Rubinstein)三个奖项;1983年英国电视与电影协会最佳特效奖。

◎获奖情况

  第55届奥斯卡金像奖 (1983)
  最佳视觉效果(提名)
  理查德·艾德兰德 / 迈克尔·伍德 / 布鲁斯·尼科尔森最佳音效剪辑(提名)
  理查德·路易斯·安德森 / 斯蒂芬·亨特·弗利克最佳原创配乐(提名)
  杰瑞·高德史密斯



Video
ID           : 1
Format       : HEVC
Format/Info      : High Efficiency Video Coding
Format profile       : Main [email protected]@Main
HDR format       : SMPTE ST 2086, HDR10 compatible
Codec ID         : V_MPEGH/ISO/HEVC
Duration         : 1 h 54 min
Bit rate         : 8 019 kb/s
Width        : 3 840 pixels
Height       : 1 604 pixels
Display aspect ratio     : 2.40:1
Frame rate mode      : Constant
Frame rate       : 23.976 (24000/1001) FPS
Color space      : YUV
Chroma subsampling       : 4:2:0
Bit depth        : 10 bits
Bits/(Pixel*Frame)       : 0.054
Stream size      : 6.41 GiB (67%)
Writing library      : x265 3.5+rarbg-HDR-38-20255e6:[Linux][clang 16.0.0][64 bit] 10bit
Encoding settings        : cpuid=1111039 / frame-threads=6 / wpp / no-pmode / no-pme / no-psnr / no-ssim / log-level=2 / input-csp=1 / input-res=3840x1604 / interlace=0 / total-frames=0 / level-idc=51 / high-tier=1 / uhd-bd=0 / ref=4 / no-allow-non-conformance / repeat-headers / annexb / aud / no-eob / no-eos / no-hrd / info / hash=0 / no-temporal-layers / no-open-gop / min-keyint=1 / keyint=24 / gop-lookahead=0 / bframes=4 / b-adapt=2 / b-pyramid / bframe-bias=0 / rc-lookahead=25 / lookahead-slices=4 / scenecut=40 / no-hist-scenecut / radl=0 / no-splice / no-intra-refresh / ctu=64 / min-cu-size=8 / rect / no-amp / max-tu-size=32 / tu-inter-depth=1 / tu-intra-depth=1 / limit-tu=0 / rdoq-level=2 / dynamic-rd=0.00 / no-ssim-rd / signhide / no-tskip / nr-intra=0 / nr-inter=0 / no-constrained-intra / strong-intra-smoothing / max-merge=3 / limit-refs=3 / no-limit-modes / me=3 / subme=3 / merange=57 / temporal-mvp / no-frame-dup / no-hme / weightp / no-weightb / no-analyze-src-pics / deblock=0:0 / no-sao / no-sao-non-deblock / rd=4 / selective-sao=0 / no-early-skip / rskip / no-fast-intra / no-tskip-fast / no-cu-lossless / no-b-intra / no-splitrd-skip / rdpenalty=0 / psy-rd=2.00 / psy-rdoq=1.00 / no-rd-refine / no-lossless / cbqpoffs=0 / crqpoffs=0 / rc=abr / bitrate=8000 / qcomp=0.60 / qpstep=4 / stats-write=0 / stats-read=2 / cplxblur=20.0 / qblur=0.5 / ipratio=1.40 / pbratio=1.30 / aq-mode=1 / aq-strength=1.00 / cutree / zone-count=0 / no-strict-cbr / qg-size=32 / no-rc-grain / qpmax=69 / qpmin=0 / no-const-vbv / sar=1 / overscan=0 / videoformat=5 / range=0 / colorprim=9 / transfer=16 / colormatrix=9 / chromaloc=0 / display-window=0 / master-display=G(13250,34500)B(7500,3000)R(34000,16000)WP(15635,16450)L(40000000,50) / cll=814,212 / min-luma=0 / max-luma=1023 / log2-max-poc-lsb=8 / vui-timing-info / vui-hrd-info / slices=1 / no-opt-qp-pps / no-opt-ref-list-length-pps / no-multi-pass-opt-rps / scenecut-bias=0.05 / hist-threshold=0.03 / no-opt-cu-delta-qp / no-aq-motion / hdr10 / hdr10-opt / no-dhdr10-opt / no-idr-recovery-sei / analysis-reuse-level=0 / analysis-save-reuse-level=0 / analysis-load-reuse-level=0 / scale-factor=0 / refine-intra=0 / refine-inter=0 / refine-mv=1 / refine-ctu-distortion=0 / no-limit-sao / ctu-info=0 / no-lowpass-dct / refine-analysis-type=0 / copy-pic=1 / max-ausize-factor=1.0 / no-dynamic-refine / no-single-sei / no-hevc-aq / no-svt / no-field / qp-adaptation-range=1.00 / scenecut-aware-qp=0conformance-window-offsets / right=0 / bottom=0 / decoder-max-rate=0 / no-vbv-live-multi-pass
Default          : Yes
Forced       : No
Color range      : Limited
Color primaries      : BT.2020
Transfer characteristics     : PQ
Matrix coefficients      : BT.2020 non-constant
Mastering display color primaries    : Display P3
Mastering display luminance      : min: 0.0050 cd/m2, max: 4000 cd/m2
Maximum Content Light Level      : 814 cd/m2
Maximum Frame-Average Light Level    : 212 cd/m2

Audio #1
ID           : 2
Format       : DTS XLL
Format/Info      : Digital Theater Systems
Commercial name      : DTS-HD Master Audio
Codec ID         : A_DTS
Duration         : 1 h 54 min
Bit rate mode        : Variable
Bit rate         : 3 481 kb/s
Channel(s)       : 6 channels
Channel layout       : C L R Ls Rs LFE
Sampling rate        : 48.0 kHz
Frame rate       : 93.750 FPS (512 SPF)
Bit depth        : 24 bits
Compression mode     : Lossless
Stream size      : 2.78 GiB (29%)
Title        : English DTS-HD MA 5.1
Language         : English
Default          : Yes
Forced       : No

Audio #2
ID           : 3
Format       : AC-3
Format/Info      : Audio Coding 3
Commercial name      : Dolby Digital
Codec ID         : A_AC3
Duration         : 1 h 54 min
Bit rate mode        : Constant
Bit rate         : 384 kb/s
Channel(s)       : 6 channels
Channel layout       : L R C LFE Ls Rs
Sampling rate        : 48.0 kHz
Frame rate       : 31.250 FPS (1536 SPF)
Compression mode     : Lossy
Stream size      : 314 MiB (3%)
Title        : English DD 5.1
Language         : English
Service kind         : Complete Main
Default          : No
Forced       : No

Text #1
ID           : 4
Format       : UTF-8
Codec ID         : S_TEXT/UTF8
Codec ID/Info        : UTF-8 Plain Text
Duration         : 1 h 48 min
Bit rate         : 47 b/s
Frame rate       : 0.190 FPS
Count of elements        : 1232
Stream size      : 37.6 KiB (0%)
Title        : English SRT
Language         : English
Default          : Yes
Forced       : No

Text #2
ID           : 5
Format       : UTF-8
Codec ID         : S_TEXT/UTF8
Codec ID/Info        : UTF-8 Plain Text
Duration         : 1 h 54 min
Bit rate         : 52 b/s
Frame rate       : 0.210 FPS
Count of elements        : 1438
Stream size      : 43.6 KiB (0%)
Title        : English SDH SRT
Language         : English
Default          : No
Forced       : No

Menu
00:00:00.000         : en:Chapter 01
00:04:38.236         : en:Chapter 02
00:07:00.128         : en:Chapter 03
00:11:44.829         : en:Chapter 04
00:16:44.086         : en:Chapter 05
00:21:24.491         : en:Chapter 06
00:24:33.138         : en:Chapter 07
00:28:42.929         : en:Chapter 08
00:34:14.135         : en:Chapter 09
00:37:15.566         : en:Chapter 10
00:42:45.813         : en:Chapter 11
00:45:46.827         : en:Chapter 12
00:50:25.313         : en:Chapter 13
00:53:34.586         : en:Chapter 14
00:59:44.914         : en:Chapter 15
01:03:11.996         : en:Chapter 16
01:07:23.330         : en:Chapter 17
01:11:13.310         : en:Chapter 18
01:14:10.237         : en:Chapter 19
01:16:40.554         : en:Chapter 20
01:22:01.082         : en:Chapter 21
01:24:56.257         : en:Chapter 22
01:29:05.340         : en:Chapter 23
01:33:02.743         : en:Chapter 24
01:35:36.522         : en:Chapter 25
01:38:55.846         : en:Chapter 26
01:42:17.881         : en:Chapter 27
01:45:47.090         : en:Chapter 28
01:47:38.076         : en:Chapter 29
01:49:40.323         : en:Chapter 30



悠悠MP4_MP4电影下载_吵闹鬼 Poltergeist.1982.2160p.UHD.BluRay.x265.10bit.HDR.DTS-HD.MA.5.1-RARBG 9.50 GB
悠悠MP4_MP4电影下载_吵闹鬼 Poltergeist.1982.2160p.UHD.BluRay.x265.10bit.HDR.DTS-HD.MA.5.1-RARBG 9.50 GB
悠悠MP4_MP4电影下载_吵闹鬼 Poltergeist.1982.2160p.UHD.BluRay.x265.10bit.HDR.DTS-HD.MA.5.1-RARBG 9.50 GB

磁力链接

magnet:?xt=urn:btih:2a6e9bab09c9fcf3e19e8dfe608762b6eac4b0c8

上传的附件:
最新回复 (0)
返回
本站所有资源均收集自互联网,没有提供影片资源存储, 也未参与录制、上传,若本站收录的资源无意侵犯了您的权益, 请联系邮箱:gogoimgs#gmail.com(#[email protected])