[2020] [欧美] [纪录] [x264-1080P] 现象 The.Phenomenon.2020.1080p.WEB.H264-BIGDOC 2.68 GB

uump4 3天前

悠悠MP4_MP4电影下载_现象 The.Phenomenon.2020.1080p.WEB.H264-BIGDOC 2.68 GB

◎片  名 现象 The Phenomenon
◎年  代 2020
◎产  地 美国
◎类  别 纪录片
◎语  言 英语
◎上映日期 2020-10-06(美国)
◎IMDb评分  7.4/10 from 3371 users
◎IMDb链接  https://www.imdb.com/title/tt13095604/
◎豆瓣评分 /10 from 0 users
◎豆瓣链接 https://movie.douban.com/subject/35214878/
◎片  长 
◎导  演 
◎编  剧 兰斯·蒙希亚 Lance Mungia
◎主  演 彼德·考约特 Peter Coyote
       比尔·克林顿 Bill Clinton
       Harry Reid Harry Reid
       Bill Richardson Bill Richardson
       John Podesta John Podesta

◎简  介

  该纪录片考察了未识别的空中现象。 在高级政府官员和美国宇航局宇航员的证词下,哈里·里德参议员说,这“使令人难以置信的可信度”。



Video
ID           : 1
Format       : AVC
Format/Info      : Advanced Video Codec
Format profile       : [email protected]
Format settings      : CABAC / 3 Ref Frames
Format settings, CABAC       : Yes
Format settings, Reference frames    : 3 frames
Codec ID         : V_MPEG4/ISO/AVC
Duration         : 1 h 40 min
Bit rate mode        : Variable
Bit rate         : 3 367 kb/s
Maximum bit rate     : 5 495 kb/s
Width        : 1 920 pixels
Height       : 1 080 pixels
Display aspect ratio     : 16:9
Frame rate mode      : Constant
Frame rate       : 23.976 (24000/1001) FPS
Color space      : YUV
Chroma subsampling       : 4:2:0
Bit depth        : 8 bits
Scan type        : Progressive
Bits/(Pixel*Frame)       : 0.068
Stream size      : 2.36 GiB (88%)
Default          : Yes
Forced       : No
Color range      : Limited
Color primaries      : BT.709
Transfer characteristics     : BT.709
Matrix coefficients      : BT.709

Audio
ID           : 2
Format       : AC-3
Format/Info      : Audio Coding 3
Commercial name      : Dolby Digital
Codec ID         : A_AC3
Duration         : 1 h 40 min
Bit rate mode        : Constant
Bit rate         : 384 kb/s
Channel(s)       : 6 channels
Channel layout       : L R C LFE Ls Rs
Sampling rate        : 48.0 kHz
Frame rate       : 31.250 FPS (1536 SPF)
Compression mode     : Lossy
Stream size      : 276 MiB (10%)
Language         : English
Service kind         : Complete Main
Default          : Yes
Forced       : No

Text
ID           : 3
Format       : UTF-8
Codec ID         : S_TEXT/UTF8
Codec ID/Info        : UTF-8 Plain Text
Title        : English [SDH]
Language         : English
Default          : No
Forced       : No



Screenshots:
悠悠MP4_MP4电影下载_现象 The.Phenomenon.2020.1080p.WEB.H264-BIGDOC 2.68 GB
The.Phenomenon.2020.1080p.WEB.H264-BIGDOC

Size: 2785M
Files: 10F
Date: 2022-09-22
Duration: 1 h 40 min

Source: Web
Encoding: H264
Bitrate: 3 827 kb/s
Audio Format: AC-3 (Dolby Digital)
Audio Rate: 384 kb/s @ 6 channels
Audio Lang: English
Sub count: 1
Subtitles: English

https://www.imdb.com/title/tt13095604/

磁力链接

magnet:?xt=urn:btih:9035e75846efb30f658abd89986e23505711d78d

上传的附件:
最新回复 (0)
返回
本站所有资源均收集自互联网,没有提供影片资源存储, 也未参与录制、上传,若本站收录的资源无意侵犯了您的权益, 请联系邮箱:gogoimgs#gmail.com(#[email protected])