[2022] [欧美] [x264-1080P] 侏罗纪统治 Jurassic.Domination.2022.1080p.BluRay.x264-FREEMAN 8.49 GB

uump4 3天前

悠悠MP4_MP4电影下载_侏罗纪统治 Jurassic.Domination.2022.1080p.BluRay.x264-FREEMAN 8.49 GB

◎片  名 侏罗纪统治 Jurassic Domination
◎年  代 2022
◎产  地 美国
◎类  别 
◎语  言 英语
◎上映日期 2022-07-01(美国)
◎IMDb评分  4.3/10 from 78 users
◎IMDb链接  https://www.imdb.com/title/tt21065316/
◎豆瓣评分 /10 from 0 users
◎豆瓣链接 https://movie.douban.com/subject/35948772/
◎片  长 
◎导  演 
◎编  剧 
◎主  演 

◎简  介

  In Jurassic Domination, “When two military-made, weaponized dinosaurs attack a small mountain town, it’s up to the sheriff to figure out a way to stop the creatures before the dinos escape and wreak havoc nationwide.” Eric Roberts (The Dark Knight), Jack Pearson (Pam & Tommy), and Jamie Bernadette (“NCIS: New Orleans”) lead the movie’s cast.



Video
ID           : 1
Format       : AVC
Format/Info      : Advanced Video Codec
Format profile       : [email protected]
Format settings      : CABAC / 5 Ref Frames
Format settings, CABAC       : Yes
Format settings, Reference frames    : 5 frames
Codec ID         : V_MPEG4/ISO/AVC
Duration         : 1 h 24 min
Bit rate         : 12.4 Mb/s
Width        : 1 920 pixels
Height       : 804 pixels
Display aspect ratio     : 2.40:1
Frame rate mode      : Constant
Frame rate       : 23.976 (24000/1001) FPS
Color space      : YUV
Chroma subsampling       : 4:2:0
Bit depth        : 8 bits
Scan type        : Progressive
Bits/(Pixel*Frame)       : 0.335
Stream size      : 7.30 GiB (86%)
Writing library      : x264 core 164 r3098 7628a56
Encoding settings        : cabac=1 / ref=5 / deblock=1:-3:-3 / analyse=0x3:0x133 / me=umh / subme=9 / psy=1 / psy_rd=1.00:0.00 / mixed_ref=1 / me_range=16 / chroma_me=1 / trellis=2 / 8x8dct=1 / cqm=0 / deadzone=21,11 / fast_pskip=0 / chroma_qp_offset=-2 / threads=24 / lookahead_threads=2 / sliced_threads=0 / nr=0 / decimate=1 / interlaced=0 / bluray_compat=0 / constrained_intra=0 / bframes=3 / b_pyramid=2 / b_adapt=2 / b_bias=0 / direct=3 / weightb=1 / open_gop=0 / weightp=2 / keyint=250 / keyint_min=23 / scenecut=40 / intra_refresh=0 / rc_lookahead=60 / rc=crf / mbtree=1 / crf=19.0 / qcomp=0.60 / qpmin=0 / qpmax=69 / qpstep=4 / ip_ratio=1.40 / aq=3:1.00
Default          : Yes
Forced       : No
Color range      : Limited
Matrix coefficients      : BT.709

Audio
ID           : 2
Format       : DTS XLL
Format/Info      : Digital Theater Systems
Commercial name      : DTS-HD Master Audio
Codec ID         : A_DTS
Duration         : 1 h 24 min
Bit rate mode        : Variable
Bit rate         : 2 019 kb/s
Channel(s)       : 6 channels
Channel layout       : C L R Ls Rs LFE
Sampling rate        : 48.0 kHz
Frame rate       : 93.750 FPS (512 SPF)
Bit depth        : 16 bits
Compression mode     : Lossless
Stream size      : 1.19 GiB (14%)
Language         : English
Default          : Yes
Forced       : No

Menu
00:00:00.000         : 00:00:00.000
00:09:22.228         : 00:09:22.228
00:21:12.980         : 00:21:12.980
00:31:56.790         : 00:31:56.790
00:41:36.327         : 00:41:36.327
00:52:40.866         : 00:52:40.866
01:02:14.981         : 01:02:14.981
01:07:46.771         : 01:07:46.771



Screenshots:
悠悠MP4_MP4电影下载_侏罗纪统治 Jurassic.Domination.2022.1080p.BluRay.x264-FREEMAN 8.49 GB
Jurassic.Domination.2022.1080p.BluRay.x264-FREEMAN

RELEASE DATE.....: 20-09-2022
SiZE.............: 8,49 GiB
ViDEO............: 1920x804 - 12,4Mbps (crf19)
SOURCE...........: 25,2 Mbps
AUDiO1...........: English DTS-XLL 5.1 - 2.019 kbps
AUDiO2...........: -
SUBS.............: -

https://imdb.com/title/tt21065316/

磁力链接

magnet:?xt=urn:btih:ef66c5602ebaed2662922d979a9ef68d33ea9139

上传的附件:
最新回复 (0)
返回
本站所有资源均收集自互联网,没有提供影片资源存储, 也未参与录制、上传,若本站收录的资源无意侵犯了您的权益, 请联系邮箱:gogoimgs#gmail.com(#[email protected])