[更早] [欧美] [悬疑] [x265-4K-HDR] 黑洞表面 Event.Horizon.1997.2160p.UHD.BluRay.x265.10bit.HDR.TrueHD.5.1-B0MBARDiERS 26.66 GB

uump4 1月前

悠悠MP4_MP4电影下载_黑洞表面 Event.Horizon.1997.2160p.UHD.BluRay.x265.10bit.HDR.TrueHD.5.1-B0MBARDiERS 26.66 GB

◎片  名 黑洞表面 Event Horizon / 撕裂地平线 / 异煞 / 地平线事件 / 黑洞吸入线号飞船
◎年  代 1997
◎产  地 英国 / 美国
◎类  别 科幻 / 悬疑 / 恐怖
◎语  言 英语 / 拉丁语
◎上映日期 1997-08-15(美国)
◎IMDb评分  6.6/10 from 176923 users
◎IMDb链接  https://www.imdb.com/title/tt0119081/
◎豆瓣评分 6.9/10 from 24075 users
◎豆瓣链接 https://movie.douban.com/subject/1298041/
◎片  长 96分钟 / 130分钟(粗剪版)
◎导  演 保罗·安德森 Paul W.S. Anderson
◎编  剧 菲利普·艾斯纳 Philip Eisner
◎主  演 劳伦斯·菲什伯恩 Laurence Fishburne
       山姆·尼尔 Sam Neill
       凯瑟琳·奎南 Kathleen Quinlan
       乔莉·理查德森 Joely Richardson
       理查德·琼斯 Richard T. Jones
       杰克·诺斯沃迪 Jack Noseworthy
       詹森·艾萨克 Jason Isaacs
       西恩·帕特维 Sean Pertwee
       诺亚·亨特雷 Noah Huntley
       埃米莉·布思 Emily Booth
       Teresa May Teresa May

◎简  介

  未来几十年内,人类探索利用太空的程度不断加深。2040年,利用空间扭曲技术深入宇宙的“新领域号”消失于海王星附近。                                    
      2047年,新领域号突然在海王星发回讯号,内容似乎为求救,于是当年设计新领域号的威尔博士(Sam Neill 饰)受命乘坐营救船“路易与克拉克”号前去施救。船长米勒(Laurence Fishburnes 饰)不甚友好,所幸路易与克拉克号很快按计划与新领域号对接。虽然生命扫描显示新领域号充满生命迹象,但搜寻之后营救队发现所有船员均死亡或消失,新领域号内制造黑洞的核心动力部分产生的震荡破坏了路易与克拉克号的外壳,营救队被迫暂时停留。                                    
      新领域号残留的影像记录将当时血腥的一幕呈现给所有人,同时营救队员们被幻象所困——他们分别看到了自己心中无法释怀的伤痛。队员们陷入了崩溃的边缘。然而更令人惊异的是,新领域号似乎具有了生命。威尔博士相信新领域号的变化是由于它进入过地狱,米勒船长为了拯救队员们和威尔展开了生死对决……



Video
ID           : 1
Format       : HEVC
Format/Info      : High Efficiency Video Coding
Format profile       : Main [email protected]@High
HDR format       : SMPTE ST 2086, HDR10 compatible
Codec ID         : V_MPEGH/ISO/HEVC
Duration         : 1 h 35 min
Bit rate         : 34.2 Mb/s
Width        : 3 840 pixels
Height       : 1 632 pixels
Display aspect ratio     : 2.35:1
Frame rate mode      : Constant
Frame rate       : 23.976 (24000/1001) FPS
Color space      : YUV
Chroma subsampling       : 4:2:0 (Type 2)
Bit depth        : 10 bits
Bits/(Pixel*Frame)       : 0.227
Stream size      : 22.9 GiB (86%)
Writing library      : x265 3.5+38-20255e6f0:[Windows][GCC 11.3.0][64 bit] 10bit
Encoding settings        : cpuid=1176575 / frame-threads=5 / numa-pools=36 / wpp / no-pmode / no-pme / no-psnr / no-ssim / log-level=2 / input-csp=1 / input-res=3840x1632 / interlace=0 / total-frames=137966 / level-idc=51 / high-tier=1 / uhd-bd=0 / ref=4 / no-allow-non-conformance / repeat-headers / annexb / aud / no-eob / no-eos / hrd / info / hash=0 / no-temporal-layers / open-gop / min-keyint=23 / keyint=250 / gop-lookahead=0 / bframes=4 / b-adapt=2 / b-pyramid / bframe-bias=0 / rc-lookahead=25 / lookahead-slices=4 / scenecut=40 / no-hist-scenecut / radl=0 / no-splice / no-intra-refresh / ctu=64 / min-cu-size=8 / rect / no-amp / max-tu-size=32 / tu-inter-depth=1 / tu-intra-depth=1 / limit-tu=0 / rdoq-level=2 / dynamic-rd=0.00 / no-ssim-rd / signhide / no-tskip / nr-intra=0 / nr-inter=0 / no-constrained-intra / strong-intra-smoothing / max-merge=3 / limit-refs=3 / limit-modes / me=3 / subme=3 / merange=57 / temporal-mvp / no-frame-dup / no-hme / weightp / no-weightb / no-analyze-src-pics / deblock=-3:-3 / no-sao / no-sao-non-deblock / rd=4 / selective-sao=0 / no-early-skip / rskip / no-fast-intra / no-tskip-fast / no-cu-lossless / no-b-intra / no-splitrd-skip / rdpenalty=0 / psy-rd=2.00 / psy-rdoq=1.00 / no-rd-refine / no-lossless / cbqpoffs=0 / crqpoffs=0 / rc=crf / crf=14.0 / qcomp=0.60 / qpstep=4 / stats-write=0 / stats-read=0 / vbv-maxrate=160000 / vbv-bufsize=160000 / vbv-init=0.9 / min-vbv-fullness=50.0 / max-vbv-fullness=80.0 / crf-max=0.0 / crf-min=0.0 / ipratio=1.40 / pbratio=1.30 / aq-mode=2 / aq-strength=1.00 / cutree / zone-count=0 / no-strict-cbr / qg-size=32 / no-rc-grain / qpmax=69 / qpmin=0 / no-const-vbv / sar=1 / overscan=0 / videoformat=5 / range=0 / colorprim=9 / transfer=16 / colormatrix=9 / chromaloc=1 / chromaloc-top=2 / chromaloc-bottom=2 / display-window=0 / master-display=G(13250,34500)B(7500,3000)R(34000,16000)WP(15635,16450)L(10000000,1) / cll=0,0 / min-luma=0 / max-luma=1023 / log2-max-poc-lsb=8 / vui-timing-info / vui-hrd-info / slices=1 / no-opt-qp-pps / no-opt-ref-list-length-pps / no-multi-pass-opt-rps / scenecut-bias=0.05 / hist-threshold=0.03 / no-opt-cu-delta-qp / no-aq-motion / hdr10 / hdr10-opt / no-dhdr10-opt / no-idr-recovery-sei / analysis-reuse-level=0 / analysis-save-reuse-level=0 / analysis-load-reuse-level=0 / scale-factor=0 / refine-intra=0 / refine-inter=0 / refine-mv=1 / refine-ctu-distortion=0 / no-limit-sao / ctu-info=0 / no-lowpass-dct / refine-analysis-type=0 / copy-pic=1 / max-ausize-factor=1.0 / no-dynamic-refine / no-single-sei / no-hevc-aq / no-svt / no-field / qp-adaptation-range=1.00 / scenecut-aware-qp=0conformance-window-offsets / right=0 / bottom=0 / decoder-max-rate=0 / no-vbv-live-multi-pass
Default          : Yes
Forced       : No
Color range      : Limited
Color primaries      : BT.2020
Transfer characteristics     : PQ
Matrix coefficients      : BT.2020 non-constant
Mastering display color primaries    : Display P3
Mastering display luminance      : min: 0.0001 cd/m2, max: 1000 cd/m2

Audio #1
ID           : 2
Format       : MLP FBA
Format/Info      : Meridian Lossless Packing FBA
Commercial name      : Dolby TrueHD
Codec ID         : A_TRUEHD
Duration         : 1 h 35 min
Bit rate mode        : Variable
Bit rate         : 4 824 kb/s
Maximum bit rate     : 6 804 kb/s
Channel(s)       : 6 channels
Channel layout       : L R C LFE Ls Rs
Sampling rate        : 48.0 kHz
Frame rate       : 1 200.000 FPS (40 SPF)
Compression mode     : Lossless
Stream size      : 3.23 GiB (12%)
Language         : English
Default          : Yes
Forced       : No

Audio #2
ID           : 3
Format       : AC-3
Format/Info      : Audio Coding 3
Commercial name      : Dolby Digital
Codec ID         : A_AC3
Duration         : 1 h 35 min
Bit rate mode        : Constant
Bit rate         : 640 kb/s
Channel(s)       : 6 channels
Channel layout       : L R C LFE Ls Rs
Sampling rate        : 48.0 kHz
Frame rate       : 31.250 FPS (1536 SPF)
Compression mode     : Lossy
Stream size      : 439 MiB (2%)
Language         : English
Service kind         : Complete Main
Default          : Yes
Forced       : No

Text #1
ID           : 4
Format       : PGS
Muxing mode      : zlib
Codec ID         : S_HDMV/PGS
Codec ID/Info        : Picture based subtitle format used on BDs/HD-DVDs
Duration         : 1 h 26 min
Bit rate         : 34.3 kb/s
Frame rate       : 0.392 FPS
Count of elements        : 2044
Stream size      : 21.4 MiB (0%)
Title        : English
Language         : English
Default          : No
Forced       : No

Text #2
ID           : 5
Format       : PGS
Muxing mode      : zlib
Codec ID         : S_HDMV/PGS
Codec ID/Info        : Picture based subtitle format used on BDs/HD-DVDs
Duration         : 1 h 28 min
Bit rate         : 38.4 kb/s
Frame rate       : 0.495 FPS
Count of elements        : 2620
Stream size      : 24.2 MiB (0%)
Title        : English SDH
Language         : English
Default          : No
Forced       : No

Text #3
ID           : 6
Format       : PGS
Muxing mode      : zlib
Codec ID         : S_HDMV/PGS
Codec ID/Info        : Picture based subtitle format used on BDs/HD-DVDs
Duration         : 1 h 30 min
Bit rate         : 33.6 kb/s
Frame rate       : 0.384 FPS
Count of elements        : 2082
Stream size      : 21.7 MiB (0%)
Title        : German
Language         : German
Default          : No
Forced       : No

Text #4
ID           : 7
Format       : PGS
Muxing mode      : zlib
Codec ID         : S_HDMV/PGS
Codec ID/Info        : Picture based subtitle format used on BDs/HD-DVDs
Duration         : 1 h 30 min
Bit rate         : 32.0 kb/s
Frame rate       : 0.386 FPS
Count of elements        : 2092
Stream size      : 20.6 MiB (0%)
Title        : Spanish
Language         : Spanish
Default          : No
Forced       : No

Text #5
ID           : 8
Format       : PGS
Muxing mode      : zlib
Codec ID         : S_HDMV/PGS
Codec ID/Info        : Picture based subtitle format used on BDs/HD-DVDs
Duration         : 1 h 30 min
Bit rate         : 28.5 kb/s
Frame rate       : 0.382 FPS
Count of elements        : 2072
Stream size      : 18.4 MiB (0%)
Title        : French
Language         : French
Default          : No
Forced       : No

Text #6
ID           : 9
Format       : PGS
Muxing mode      : zlib
Codec ID         : S_HDMV/PGS
Codec ID/Info        : Picture based subtitle format used on BDs/HD-DVDs
Duration         : 1 h 30 min
Bit rate         : 30.1 kb/s
Frame rate       : 0.384 FPS
Count of elements        : 2078
Stream size      : 19.4 MiB (0%)
Title        : Italian
Language         : Italian
Default          : No
Forced       : No

Text #7
ID           : 10
Format       : PGS
Muxing mode      : zlib
Codec ID         : S_HDMV/PGS
Codec ID/Info        : Picture based subtitle format used on BDs/HD-DVDs
Duration         : 1 h 30 min
Bit rate         : 15.0 kb/s
Frame rate       : 0.371 FPS
Count of elements        : 2012
Stream size      : 9.72 MiB (0%)
Title        : Japanese
Language         : Japanese
Default          : No
Forced       : No

Text #8
ID           : 11
Format       : PGS
Muxing mode      : zlib
Codec ID         : S_HDMV/PGS
Codec ID/Info        : Picture based subtitle format used on BDs/HD-DVDs
Duration         : 1 h 28 min
Bit rate         : 674 b/s
Frame rate       : 0.005 FPS
Count of elements        : 28
Stream size      : 439 KiB (0%)
Title        : German
Language         : German
Default          : No
Forced       : No

Text #9
ID           : 12
Format       : PGS
Muxing mode      : zlib
Codec ID         : S_HDMV/PGS
Codec ID/Info        : Picture based subtitle format used on BDs/HD-DVDs
Duration         : 1 h 28 min
Bit rate         : 979 b/s
Frame rate       : 0.009 FPS
Count of elements        : 50
Stream size      : 637 KiB (0%)
Title        : Spanish
Language         : Spanish
Default          : No
Forced       : No

Text #10
ID           : 13
Format       : PGS
Muxing mode      : zlib
Codec ID         : S_HDMV/PGS
Codec ID/Info        : Picture based subtitle format used on BDs/HD-DVDs
Duration         : 1 h 28 min
Bit rate         : 653 b/s
Frame rate       : 0.006 FPS
Count of elements        : 30
Stream size      : 425 KiB (0%)
Title        : French
Language         : French
Default          : No
Forced       : No

Text #11
ID           : 14
Format       : PGS
Muxing mode      : zlib
Codec ID         : S_HDMV/PGS
Codec ID/Info        : Picture based subtitle format used on BDs/HD-DVDs
Duration         : 1 h 28 min
Bit rate         : 615 b/s
Frame rate       : 0.006 FPS
Count of elements        : 30
Stream size      : 400 KiB (0%)
Title        : Italian
Language         : Italian
Default          : No
Forced       : No

Text #12
ID           : 15
Format       : PGS
Muxing mode      : zlib
Codec ID         : S_HDMV/PGS
Codec ID/Info        : Picture based subtitle format used on BDs/HD-DVDs
Duration         : 1 h 28 min
Bit rate         : 406 b/s
Frame rate       : 0.007 FPS
Count of elements        : 36
Stream size      : 265 KiB (0%)
Title        : Japanese
Language         : Japanese
Default          : No
Forced       : No

Menu
00:00:00.000         : en:Chapter 01
00:05:41.091         : en:Chapter 02
00:08:27.090         : en:Chapter 03
00:12:12.065         : en:Chapter 04
00:18:39.035         : en:Chapter 05
00:23:19.815         : en:Chapter 06
00:29:04.868         : en:Chapter 07
00:34:01.164         : en:Chapter 08
00:39:23.403         : en:Chapter 09
00:45:08.706         : en:Chapter 10
00:51:09.692         : en:Chapter 11
00:58:17.786         : en:Chapter 12
01:04:38.041         : en:Chapter 13
01:09:31.042         : en:Chapter 14
01:15:09.630         : en:Chapter 15
01:22:20.644         : en:Chapter 16
01:29:34.578         : en:Chapter 17
01:35:53.748         : en:Chapter 18



悠悠MP4_MP4电影下载_黑洞表面 Event.Horizon.1997.2160p.UHD.BluRay.x265.10bit.HDR.TrueHD.5.1-B0MBARDiERS 26.66 GB
悠悠MP4_MP4电影下载_黑洞表面 Event.Horizon.1997.2160p.UHD.BluRay.x265.10bit.HDR.TrueHD.5.1-B0MBARDiERS 26.66 GB
悠悠MP4_MP4电影下载_黑洞表面 Event.Horizon.1997.2160p.UHD.BluRay.x265.10bit.HDR.TrueHD.5.1-B0MBARDiERS 26.66 GB

磁力链接

magnet:?xt=urn:btih:be7d77981603cf636ceb1381f7cbce08e4b377bd

上传的附件:
最新回复 (0)
返回
本站所有资源均收集自互联网,没有提供影片资源存储, 也未参与录制、上传,若本站收录的资源无意侵犯了您的权益, 请联系邮箱:gogoimgs#gmail.com(#[email protected])