[2020] [欧美] [奇幻] [x264-3D] 多力特的奇幻冒险 Dolittle.2020.1080p.3D.BluRay.Half-SBS.x264.DTS-HD.MA.7.1-FGT 19.84 GB

uump4 1月前

悠悠MP4_MP4电影下载_多力特的奇幻冒险 Dolittle.2020.1080p.3D.BluRay.Half-SBS.x264.DTS-HD.MA.7.1-FGT 19.84 GB

◎片  名 多力特的奇幻冒险 Dolittle / 怪医杜立德 / 杜立德(台) / 怪医D老笃(港) / 怪医杜立德历险记 / 杜立德医生的旅行 / The Vogage of Dr. Dolittle / The Voyage of Doctor Dolittle
◎年  代 2020
◎产  地 美国 / 中国大陆 / 英国
◎类  别 喜剧 / 奇幻 / 冒险
◎语  言 英语 / 法语
◎上映日期 2020-07-24(中国大陆) / 2020-01-17(美国)
◎IMDb评分  5.6/10 from 63774 users
◎IMDb链接  https://www.imdb.com/title/tt6673612/
◎豆瓣评分 5.7/10 from 55558 users
◎豆瓣链接 https://movie.douban.com/subject/27000981/
◎片  长 101分钟
◎导  演 斯蒂芬·加汉 Stephen Gaghan
◎编  剧 斯蒂芬·加汉 Stephen Gaghan
       丹·格雷戈尔 Dan Gregor
       休·洛夫廷 Hugh Lofting
       道格·曼德 Doug Mand
       托马斯·谢泼德 Thomas Shepherd
◎主  演 小罗伯特·唐尼 Robert Downey Jr.
       汤姆·赫兰德 Tom Holland
       拉米·马雷克 Rami Malek
       麦克·辛 Michael Sheen
       杰西·巴克利 Jessie Buckley
       艾玛·汤普森 Emma Thompson
       拉尔夫·费因斯 Ralph Fiennes
       安东尼奥·班德拉斯 Antonio Banderas
       玛丽昂·歌迪亚 Marion Cotillard
       赛琳娜·戈麦斯 Selena Gomez
       约翰·塞纳 John Cena
       卡门·艾乔戈 Carmen Ejogo
       库梅尔·南贾尼 Kumail Nanjiani
       奥克塔维亚·斯宾瑟 Octavia Spencer
       拉尔夫·伊内森 Ralph Ineson
       吉姆·布劳德本特 Jim Broadbent
       克雷格·罗宾森 Craig Robinson
       弗朗西斯·德·拉·图瓦 Frances de la Tour
       卡夏·斯穆特尼亚克 Kasia Smutniak
       奥利弗·库珀史密斯 Oliver Coopersmith
       尼克·穆罕默德 Nick Mohammed
       托尼娅·科妮斯 Tonya Cornelisse
       萨克·霍兰 Zak Holland
       纳西尔·贾玛 Nasir Jama
       贝恩·科拉科 Bern Collaço
       约瑟夫·巴德拉玛 Joseph Balderrama
       萨姆森·卡约 Samson Kayo
       史蒂芬·萨姆森 Stephen Samson
       塔希尔·布尔汉 Tahir Burhan
       保罗·霍洛瓦蒂 Paul Holowaty
       哈利·柯勒特 Harry Collett
       卡梅尔·拉尼亚多 Carmel Laniado

◎简  介

  故事发生在英国维多利亚女王(杰西·巴克利 Jessie Buckley 饰)统治时期,多力特(小罗伯特·唐尼 Robert Downey Jr. 饰)拥有着能够和动物交谈的特殊能力,和妻子一起在老家经营着一家动物医院。                                    
      一场意外夺走了多力特妻子的生命,这巨大的打击让多力特封闭起了心门,拒绝和任何人类接触。一天,一个名叫汤姆(哈里·科莱特 Harry Collett 饰)的男孩闯入了多力特的家,带来了一只受伤的松鼠,希望多力特能够救它。与此同时,维多利亚女王患上了一种怪病,于是派出了侍女萝丝(卡梅尔·拉尼亚多 Carmel Laniado 饰)去拜访多力特,请他出山。多力特所拥有的动物庄园归属于女王的名下,如果女王去世了,那么多力特将失去他和动物们这唯一的乐园。

◎获奖情况

  第41届金酸莓奖 (2021)
  最差影片(提名)
  最差男主角(提名)
  小罗伯特·唐尼最差导演(提名)
  斯蒂芬·加汉最差剧本(提名)
  最差银幕组合(提名)
  小罗伯特·唐尼最差前传、重拍、恶搞及续集电影
  

  第23届美国服装设计工会奖 (2021)
  科幻/奇幻题材电影最佳服装设计(提名)
  珍妮·碧万



Video
ID           : 1
Format       : AVC
Format/Info      : Advanced Video Codec
Format profile       : [email protected]
Format settings      : CABAC / 2 Ref Frames
Format settings, CABAC       : Yes
Format settings, Reference frames    : 2 frames
Codec ID         : V_MPEG4/ISO/AVC
Duration         : 1 h 41 min
Bit rate         : 14.3 Mb/s
Nominal bit rate     : 15.5 Mb/s
Width        : 1 920 pixels
Height       : 1 080 pixels
Display aspect ratio     : 16:9
Frame rate mode      : Constant
Frame rate       : 23.976 (24000/1001) FPS
Color space      : YUV
Chroma subsampling       : 4:2:0
Bit depth        : 8 bits
Scan type        : Progressive
Bits/(Pixel*Frame)       : 0.288
Stream size      : 10.1 GiB (51%)
Writing library      : x264 core 148
Encoding settings        : cabac=1 / ref=1 / deblock=1:-1:-1 / analyse=0x3:0 / me=hex / subme=5 / psy=0 / mixed_ref=0 / me_range=16 / chroma_me=1 / trellis=0 / 8x8dct=1 / cqm=0 / deadzone=21,11 / fast_pskip=0 / chroma_qp_offset=0 / threads=48 / lookahead_threads=8 / sliced_threads=0 / nr=0 / decimate=1 / interlaced=0 / bluray_compat=0 / constrained_intra=0 / bframes=2 / b_pyramid=0 / b_adapt=1 / b_bias=0 / direct=1 / weightb=0 / open_gop=0 / weightp=0 / keyint=24 / keyint_min=13 / scenecut=40 / intra_refresh=0 / rc_lookahead=24 / rc=cbr / mbtree=0 / bitrate=15500 / ratetol=1.0 / qcomp=0.60 / qpmin=0 / qpmax=69 / qpstep=4 / vbv_maxrate=15500 / vbv_bufsize=15500 / nal_hrd=none / filler=0 / ip_ratio=1.40 / pb_ratio=1.30 / aq=1:1.00
Default          : Yes
Forced       : No
Color range      : Limited
Color primaries      : BT.709
Transfer characteristics     : BT.709
Matrix coefficients      : BT.709

Audio #1
ID           : 2
Format       : DTS XLL
Format/Info      : Digital Theater Systems
Commercial name      : DTS-HD Master Audio
Codec ID         : A_DTS
Duration         : 1 h 41 min
Bit rate mode        : Variable
Bit rate         : 3 955 kb/s
Channel(s)       : 8 channels
Channel layout       : C L R LFE Lb Rb Lss Rss
Sampling rate        : 48.0 kHz
Frame rate       : 93.750 FPS (512 SPF)
Bit depth        : 24 bits
Compression mode     : Lossless
Stream size      : 2.80 GiB (14%)
Title        : DTS-HD MA 7.1
Language         : English
Default          : Yes
Forced       : No

Audio #2
ID           : 3
ID in the original source medium     : 4354 (0x1102)
Format       : DTS XLL
Format/Info      : Digital Theater Systems
Commercial name      : DTS-HD Master Audio
Codec ID         : A_DTS
Duration         : 1 h 41 min
Bit rate mode        : Variable
Bit rate         : 1 577 kb/s
Channel(s)       : 2 channels
Sampling rate        : 48.0 kHz
Frame rate       : 93.750 FPS (512 SPF)
Bit depth        : 16 bits
Compression mode     : Lossless
Stream size      : 1.12 GiB (6%)
Title        : DTS-HD MA 2.0
Language         : English
Default          : No
Forced       : No
Original source medium       : Blu-ray

Audio #3
ID           : 4
ID in the original source medium     : 4355 (0x1103)
Format       : DTS XLL
Format/Info      : Digital Theater Systems
Commercial name      : DTS-HD Master Audio
Codec ID         : A_DTS
Duration         : 1 h 41 min
Bit rate mode        : Variable
Bit rate         : 1 580 kb/s
Channel(s)       : 2 channels
Sampling rate        : 48.0 kHz
Frame rate       : 93.750 FPS (512 SPF)
Bit depth        : 16 bits
Compression mode     : Lossless
Stream size      : 1.12 GiB (6%)
Title        : DTS-HD MA 2.0
Language         : English
Default          : No
Forced       : No
Original source medium       : Blu-ray

Audio #4
ID           : 5
ID in the original source medium     : 4356 (0x1104)
Format       : MLP FBA 16-ch
Format/Info      : Meridian Lossless Packing FBA with 16-channel presentation
Commercial name      : Dolby TrueHD with Dolby Atmos
Codec ID         : A_TRUEHD
Duration         : 1 h 41 min
Bit rate mode        : Variable
Bit rate         : 2 985 kb/s
Maximum bit rate     : 4 395 kb/s
Channel(s)       : 8 channels
Channel layout       : L R C LFE Ls Rs Lb Rb
Sampling rate        : 48.0 kHz
Frame rate       : 1 200.000 FPS (40 SPF)
Bit depth        : 24 bits
Compression mode     : Lossless
Stream size      : 2.11 GiB (11%)
Title        : TrueHD 7.1 Atmos
Language         : German
Default          : No
Forced       : No
Original source medium       : Blu-ray
Number of dynamic objects    : 11
Bed channel count        : 1 channel
Bed channel configuration    : LFE

Audio #5
ID           : 6
Format       : E-AC-3
Format/Info      : Enhanced AC-3
Commercial name      : Dolby Digital Plus
Format profile       : Blu-ray Disc
Codec ID         : A_EAC3
Duration         : 1 h 41 min
Bit rate mode        : Constant
Bit rate         : 768 kb/s
Channel(s)       : 8 channels
Channel layout       : L R C LFE Ls Rs Lb Rb
Sampling rate        : 48.0 kHz
Frame rate       : 31.250 FPS (1536 SPF)
Compression mode     : Lossy
Stream size      : 557 MiB (3%)
Title        : DDP 7.1
Language         : Italian
Service kind         : Complete Main
Default          : No
Forced       : No

Audio #6
ID           : 7
ID in the original source medium     : 4358 (0x1106)
Format       : AC-3
Format/Info      : Audio Coding 3
Commercial name      : Dolby Digital
Codec ID         : A_AC3
Duration         : 1 h 41 min
Bit rate mode        : Constant
Bit rate         : 640 kb/s
Channel(s)       : 6 channels
Channel layout       : L R C LFE Ls Rs
Sampling rate        : 48.0 kHz
Frame rate       : 31.250 FPS (1536 SPF)
Compression mode     : Lossy
Stream size      : 464 MiB (2%)
Title        : DD 5.1
Language         : Turkish
Service kind         : Complete Main
Default          : No
Forced       : No
Original source medium       : Blu-ray

Audio #7
ID           : 8
Format       : E-AC-3
Format/Info      : Enhanced AC-3
Commercial name      : Dolby Digital Plus
Format profile       : Blu-ray Disc
Codec ID         : A_EAC3
Duration         : 1 h 41 min
Bit rate mode        : Constant
Bit rate         : 768 kb/s
Channel(s)       : 8 channels
Channel layout       : L R C LFE Ls Rs Lb Rb
Sampling rate        : 48.0 kHz
Frame rate       : 31.250 FPS (1536 SPF)
Compression mode     : Lossy
Stream size      : 557 MiB (3%)
Title        : DDP 7.1
Language         : Spanish
Service kind         : Complete Main
Default          : No
Forced       : No

Audio #8
ID           : 9
Format       : E-AC-3
Format/Info      : Enhanced AC-3
Commercial name      : Dolby Digital Plus
Format profile       : Blu-ray Disc
Codec ID         : A_EAC3
Duration         : 1 h 41 min
Bit rate mode        : Constant
Bit rate         : 768 kb/s
Channel(s)       : 8 channels
Channel layout       : L R C LFE Ls Rs Lb Rb
Sampling rate        : 48.0 kHz
Frame rate       : 31.250 FPS (1536 SPF)
Compression mode     : Lossy
Stream size      : 557 MiB (3%)
Title        : DDP 7.1
Language         : French
Service kind         : Complete Main
Default          : No
Forced       : No

Audio #9
ID           : 10
ID in the original source medium     : 4360 (0x1108)
Format       : AC-3
Format/Info      : Audio Coding 3
Commercial name      : Dolby Digital
Codec ID         : A_AC3
Duration         : 1 h 41 min
Bit rate mode        : Constant
Bit rate         : 448 kb/s
Channel(s)       : 6 channels
Channel layout       : L R C LFE Ls Rs
Sampling rate        : 48.0 kHz
Frame rate       : 31.250 FPS (1536 SPF)
Compression mode     : Lossy
Stream size      : 325 MiB (2%)
Title        : DD 5.1
Language         : French
Service kind         : Complete Main
Default          : No
Forced       : No
Original source medium       : Blu-ray

Text #1
ID           : 11
Format       : PGS
Muxing mode      : zlib
Codec ID         : S_HDMV/PGS
Codec ID/Info        : Picture based subtitle format used on BDs/HD-DVDs
Duration         : 1 h 32 min
Bit rate         : 71.7 kb/s
Frame rate       : 0.675 FPS
Count of elements        : 3752
Stream size      : 47.5 MiB (0%)
Language         : English
Default          : Yes
Forced       : No

Text #2
ID           : 12
ID in the original source medium     : 4609 (0x1201)
Format       : PGS
Muxing mode      : zlib
Codec ID         : S_HDMV/PGS
Codec ID/Info        : Picture based subtitle format used on BDs/HD-DVDs
Duration         : 1 h 34 min
Bit rate         : 243 b/s
Frame rate       : 0.002 FPS
Count of elements        : 14
Stream size      : 169 KiB (0%)
Language         : German
Default          : No
Forced       : No
Original source medium       : Blu-ray

Text #3
ID           : 13
ID in the original source medium     : 4610 (0x1202)
Format       : PGS
Muxing mode      : zlib
Codec ID         : S_HDMV/PGS
Codec ID/Info        : Picture based subtitle format used on BDs/HD-DVDs
Duration         : 1 h 40 min
Bit rate         : 35.0 kb/s
Frame rate       : 0.385 FPS
Count of elements        : 2324
Stream size      : 25.2 MiB (0%)
Language         : German
Default          : No
Forced       : No
3d-plane         : 1
Original source medium       : Blu-ray

Text #4
ID           : 14
ID in the original source medium     : 4611 (0x1203)
Format       : PGS
Muxing mode      : zlib
Codec ID         : S_HDMV/PGS
Codec ID/Info        : Picture based subtitle format used on BDs/HD-DVDs
Duration         : 1 h 34 min
Bit rate         : 165 b/s
Frame rate       : 0.002 FPS
Count of elements        : 12
Stream size      : 115 KiB (0%)
Language         : Italian
Default          : No
Forced       : No
Original source medium       : Blu-ray

Text #5
ID           : 15
ID in the original source medium     : 4612 (0x1204)
Format       : PGS
Muxing mode      : zlib
Codec ID         : S_HDMV/PGS
Codec ID/Info        : Picture based subtitle format used on BDs/HD-DVDs
Duration         : 1 h 40 min
Bit rate         : 34.9 kb/s
Frame rate       : 0.419 FPS
Count of elements        : 2524
Stream size      : 25.1 MiB (0%)
Language         : Italian
Default          : No
Forced       : No
Original source medium       : Blu-ray

Text #6
ID           : 16
ID in the original source medium     : 4613 (0x1205)
Format       : PGS
Muxing mode      : zlib
Codec ID         : S_HDMV/PGS
Codec ID/Info        : Picture based subtitle format used on BDs/HD-DVDs
Duration         : 1 h 34 min
Bit rate         : 302 b/s
Frame rate       : 0.004 FPS
Count of elements        : 24
Stream size      : 210 KiB (0%)
Language         : Turkish
Default          : No
Forced       : No
Original source medium       : Blu-ray

Text #7
ID           : 17
ID in the original source medium     : 4614 (0x1206)
Format       : PGS
Muxing mode      : zlib
Codec ID         : S_HDMV/PGS
Codec ID/Info        : Picture based subtitle format used on BDs/HD-DVDs
Duration         : 1 h 40 min
Bit rate         : 35.7 kb/s
Frame rate       : 0.464 FPS
Count of elements        : 2800
Stream size      : 25.7 MiB (0%)
Language         : Turkish
Default          : No
Forced       : No
Original source medium       : Blu-ray

Text #8
ID           : 18
ID in the original source medium     : 4615 (0x1207)
Format       : PGS
Muxing mode      : zlib
Codec ID         : S_HDMV/PGS
Codec ID/Info        : Picture based subtitle format used on BDs/HD-DVDs
Duration         : 1 h 34 min
Bit rate         : 390 b/s
Frame rate       : 0.005 FPS
Count of elements        : 26
Stream size      : 272 KiB (0%)
Language         : Spanish
Default          : No
Forced       : No
Original source medium       : Blu-ray

Text #9
ID           : 19
ID in the original source medium     : 4616 (0x1208)
Format       : PGS
Muxing mode      : zlib
Codec ID         : S_HDMV/PGS
Codec ID/Info        : Picture based subtitle format used on BDs/HD-DVDs
Duration         : 1 h 40 min
Bit rate         : 35.0 kb/s
Frame rate       : 0.463 FPS
Count of elements        : 2794
Stream size      : 25.2 MiB (0%)
Language         : Spanish
Default          : No
Forced       : No
Original source medium       : Blu-ray

Text #10
ID           : 20
ID in the original source medium     : 4617 (0x1209)
Format       : PGS
Muxing mode      : zlib
Codec ID         : S_HDMV/PGS
Codec ID/Info        : Picture based subtitle format used on BDs/HD-DVDs
Duration         : 1 h 36 min
Bit rate         : 542 b/s
Frame rate       : 0.006 FPS
Count of elements        : 34
Stream size      : 385 KiB (0%)
Language         : French
Default          : No
Forced       : No
Original source medium       : Blu-ray

Text #11
ID           : 21
ID in the original source medium     : 4618 (0x120A)
Format       : PGS
Muxing mode      : zlib
Codec ID         : S_HDMV/PGS
Codec ID/Info        : Picture based subtitle format used on BDs/HD-DVDs
Duration         : 1 h 40 min
Bit rate         : 36.6 kb/s
Frame rate       : 0.462 FPS
Count of elements        : 2784
Stream size      : 26.3 MiB (0%)
Language         : French
Default          : No
Forced       : No
Original source medium       : Blu-ray

Text #12
ID           : 22
ID in the original source medium     : 4619 (0x120B)
Format       : PGS
Muxing mode      : zlib
Codec ID         : S_HDMV/PGS
Codec ID/Info        : Picture based subtitle format used on BDs/HD-DVDs
Duration         : 1 h 40 min
Bit rate         : 30.7 kb/s
Frame rate       : 0.307 FPS
Count of elements        : 1852
Stream size      : 22.1 MiB (0%)
Language         : Dutch
Default          : No
Forced       : No
Original source medium       : Blu-ray

Text #13
ID           : 23
ID in the original source medium     : 4620 (0x120C)
Format       : PGS
Muxing mode      : zlib
Codec ID         : S_HDMV/PGS
Codec ID/Info        : Picture based subtitle format used on BDs/HD-DVDs
Duration         : 1 h 40 min
Bit rate         : 31.0 kb/s
Frame rate       : 0.307 FPS
Count of elements        : 1852
Stream size      : 22.3 MiB (0%)
Language         : Danish
Default          : No
Forced       : No
Original source medium       : Blu-ray

Text #14
ID           : 24
ID in the original source medium     : 4621 (0x120D)
Format       : PGS
Muxing mode      : zlib
Codec ID         : S_HDMV/PGS
Codec ID/Info        : Picture based subtitle format used on BDs/HD-DVDs
Duration         : 1 h 40 min
Bit rate         : 29.0 kb/s
Frame rate       : 0.372 FPS
Count of elements        : 2243
Stream size      : 20.8 MiB (0%)
Language         : Finnish
Default          : No
Forced       : No
Original source medium       : Blu-ray

Text #15
ID           : 25
ID in the original source medium     : 4622 (0x120E)
Format       : PGS
Muxing mode      : zlib
Codec ID         : S_HDMV/PGS
Codec ID/Info        : Picture based subtitle format used on BDs/HD-DVDs
Duration         : 1 h 40 min
Bit rate         : 33.7 kb/s
Frame rate       : 0.463 FPS
Count of elements        : 2790
Stream size      : 24.2 MiB (0%)
Language         : Norwegian
Default          : No
Forced       : No
Original source medium       : Blu-ray

Text #16
ID           : 26
ID in the original source medium     : 4623 (0x120F)
Format       : PGS
Muxing mode      : zlib
Codec ID         : S_HDMV/PGS
Codec ID/Info        : Picture based subtitle format used on BDs/HD-DVDs
Duration         : 1 h 40 min
Bit rate         : 30.3 kb/s
Frame rate       : 0.317 FPS
Count of elements        : 1913
Stream size      : 21.7 MiB (0%)
Language         : Swedish
Default          : No
Forced       : No
Original source medium       : Blu-ray

Text #17
ID           : 27
ID in the original source medium     : 4624 (0x1210)
Format       : PGS
Muxing mode      : zlib
Codec ID         : S_HDMV/PGS
Codec ID/Info        : Picture based subtitle format used on BDs/HD-DVDs
Duration         : 1 h 40 min
Bit rate         : 19.0 kb/s
Frame rate       : 0.458 FPS
Count of elements        : 2762
Stream size      : 13.7 MiB (0%)
Language         : Arabic
Default          : No
Forced       : No
Original source medium       : Blu-ray

Text #18
ID           : 28
ID in the original source medium     : 4625 (0x1211)
Format       : PGS
Muxing mode      : zlib
Codec ID         : S_HDMV/PGS
Codec ID/Info        : Picture based subtitle format used on BDs/HD-DVDs
Duration         : 1 h 40 min
Bit rate         : 37.2 kb/s
Frame rate       : 0.467 FPS
Count of elements        : 2818
Stream size      : 26.7 MiB (0%)
Language         : Icelandic
Default          : No
Forced       : No
Original source medium       : Blu-ray

Menu
00:00:00.000         : en:Chapter 01
00:06:18.711         : en:Chapter 02
00:11:56.132         : en:Chapter 03
00:18:36.657         : en:Chapter 04
00:22:00.861         : en:Chapter 05
00:29:29.559         : en:Chapter 06
00:35:57.488         : en:Chapter 07
00:39:07.803         : en:Chapter 08
00:45:47.077         : en:Chapter 09
00:48:28.238         : en:Chapter 10
00:54:54.791         : en:Chapter 11
01:01:48.705         : en:Chapter 12
01:04:54.473         : en:Chapter 13
01:09:45.055         : en:Chapter 14
01:14:56.950         : en:Chapter 15
01:18:39.464         : en:Chapter 16
01:23:37.262         : en:Chapter 17
01:30:01.312         : en:Chapter 18



悠悠MP4_MP4电影下载_多力特的奇幻冒险 Dolittle.2020.1080p.3D.BluRay.Half-SBS.x264.DTS-HD.MA.7.1-FGT 19.84 GB
悠悠MP4_MP4电影下载_多力特的奇幻冒险 Dolittle.2020.1080p.3D.BluRay.Half-SBS.x264.DTS-HD.MA.7.1-FGT 19.84 GB
悠悠MP4_MP4电影下载_多力特的奇幻冒险 Dolittle.2020.1080p.3D.BluRay.Half-SBS.x264.DTS-HD.MA.7.1-FGT 19.84 GB

磁力链接

magnet:?xt=urn:btih:0bcbb1af989502f7dffc84eed29ac88a8df91336

上传的附件:
最新回复 (0)
返回
本站所有资源均收集自互联网,没有提供影片资源存储, 也未参与录制、上传,若本站收录的资源无意侵犯了您的权益, 请联系邮箱:gogoimgs#gmail.com(#[email protected])