[更早] [欧美] [喜剧] [x264-720P] 野餐会 The.Cookout.2004.720p.WEB.H264-DiMEPiECE 3.96 GB

uump4 1月前

悠悠MP4_MP4电影下载_野餐会 The.Cookout.2004.720p.WEB.H264-DiMEPiECE 3.96 GB

◎片  名 野餐会 The Cookout / 户外烤肉
◎年  代 2004
◎产  地 美国
◎类  别 喜剧
◎语  言 英语
◎上映日期 2004-09-03
◎IMDb评分  3.7/10 from 3029 users
◎IMDb链接  https://www.imdb.com/title/tt0380277/
◎豆瓣评分 6.7/10 from 60 users
◎豆瓣链接 https://movie.douban.com/subject/1308766/
◎片  长 USA: 97 分钟 / Argentina: 97 分钟
◎导  演 兰斯·瑞弗拉 Lance Rivera
◎编  剧 Jeffrey Brian Holmes Jeffrey Brian Holmes
       奎恩·拉提法 Queen Latifah
       Shakim Compere Shakim Compere
◎主  演 库伦·潘德 Quran Pender
       詹妮弗·路易斯 Jenifer Lewis
       杰鲁 Ja Rule
       奎恩·拉提法 Queen Latifah
       乔纳森·斯沃曼 Jonathan Silverman
       蒂姆·麦道斯 Tim Meadows
       弗兰基·费森 Frankie Faison
       雷格·E·凯蒂 Reg E. Cathey
       杰瑞·巴曼 Gerry Bamman
       杰罗德·米克森 Jerod Mixon
       贾马尔·米克森 Jamal Mixon
       Peggy Cosgrave Peggy Cosgrave
       马弗·艾伯特 Marv Albert
       杰西·梅 Jesse May
       马克·库班 Mark Cuban
       巴朗·戴维斯 Baron Davis
       伊芙 Eve
       埃尔顿·布兰德 Elton Brand
       凯文·菲利普斯 Kevin Phillips
       Thomas James O'Leary Thomas James O'Leary
       Justin Alba Justin Alba
       温蒂·威廉姆斯 Wendy Williams
       费拉·福赛特 Farrah Fawcett
       戈弗雷·丹奇马 Godfrey
       Deep Katdare Deep Katdare
       卡尔·赖特 Carl Wright
       丹尼·格洛弗 Danny Glover
       梅根·古德 Meagan Good
       维森特·帕斯托雷 Vincent Pastore
       Lance Spellerberg Lance Spellerberg

◎简  介

  美国社会中,黑人和白人的隔膜似乎无法消除,就像篮球很棒的黑人小伙子托德(库伦·潘德Quran Pender饰),尽管他以三千万美金的身价加盟NBA,一夜跻身富人行列,却无助于改变他的肤色和由此带来的麻烦。                                    
      托德在白人区里买了一幢高级寓所,并叫来亲戚朋友助兴,举行隆重而吵闹的传统烤肉宴会。正如黑人的性格那样,烤肉宴会奔放热闹,不拘礼节,成为人人狂欢的美妙时刻。                                    
      这在白人区里引来不满。在白人的眼中,如此胡闹的新邻居简直是这个片区居民的灾星。然而,他们却不了解了这群黑人的优点——他们团结互助,不畏强暴,赶走了前来搅乱险些闹出人命的歹徒。也许,善良友好的托德妈妈,乐观直率的黑人朋友,终有一天能打破黑白世界的隔阂。



Video
ID           : 1
Format       : AVC
Format/Info      : Advanced Video Codec
Format profile       : [email protected]
Format settings      : CABAC / 4 Ref Frames
Format settings, CABAC       : Yes
Format settings, Reference frames    : 4 frames
Codec ID         : V_MPEG4/ISO/AVC
Duration         : 1 h 28 min
Bit rate mode        : Constant
Bit rate         : 6 000 kb/s
Width        : 1 280 pixels
Height       : 720 pixels
Display aspect ratio     : 16:9
Frame rate mode      : Constant
Frame rate       : 24.000 FPS
Color space      : YUV
Chroma subsampling       : 4:2:0
Bit depth        : 8 bits
Scan type        : Progressive
Bits/(Pixel*Frame)       : 0.271
Stream size      : 3.56 GiB (90%)
Language         : English
Default          : Yes
Forced       : No
Color range      : Limited
Color primaries      : BT.709
Transfer characteristics     : BT.709
Matrix coefficients      : BT.709

Audio
ID           : 2
Format       : E-AC-3
Format/Info      : Enhanced AC-3
Commercial name      : Dolby Digital Plus
Codec ID         : A_EAC3
Duration         : 1 h 28 min
Bit rate mode        : Constant
Bit rate         : 640 kb/s
Channel(s)       : 6 channels
Channel layout       : L R C LFE Ls Rs
Sampling rate        : 48.0 kHz
Frame rate       : 31.250 FPS (1536 SPF)
Compression mode     : Lossy
Stream size      : 405 MiB (10%)
Title        : English
Language         : English
Service kind         : Complete Main
Default          : Yes
Forced       : No

Text
ID           : 3
Format       : UTF-8
Codec ID         : S_TEXT/UTF8
Codec ID/Info        : UTF-8 Plain Text
Duration         : 1 h 23 min
Bit rate         : 95 b/s
Count of elements        : 2125
Stream size      : 58.1 KiB (0%)
Title        : English
Language         : English
Default          : No
Forced       : No



Screenshots:
悠悠MP4_MP4电影下载_野餐会 The.Cookout.2004.720p.WEB.H264-DiMEPiECE 3.96 GB
The.Cookout.2004.720p.WEB.H264-DiMEPiECE

info.....: https://www.imdb.com/title/tt0380277/
date.....: 2022-08-10
video....: 1280x720 / 6000kb/s
audio....: E-AC-3 / 640kb/s
duration.: 1 h 28 min
language.: English
subtitles: English

磁力链接

magnet:?xt=urn:btih:caa7bc0062d3463c8857e93a63dcf49819dbbfa4

上传的附件:
最新回复 (0)
返回
本站所有资源均收集自互联网,没有提供影片资源存储, 也未参与录制、上传,若本站收录的资源无意侵犯了您的权益, 请联系邮箱:gogoimgs#gmail.com(#[email protected])