[2021] [欧美] [纪录] [x264-1080P] To Which We Belong To.Which.We.Belong.2021.1080p.AMZN.WEBRip.DDP2.0.x264-THR 5.59 GB

uump4 1月前

悠悠MP4_MP4电影下载_To Which We Belong To.Which.We.Belong.2021.1080p.AMZN.WEBRip.DDP2.0.x264-THR 5.59 GB

◎片  名 To Which We Belong
◎年  代 2021
◎产  地 美国
◎类  别 纪录片
◎语  言 英语
◎上映日期 2021-04-10(美国)
◎IMDb评分  6.7/10 from 7 users
◎IMDb链接  https://www.imdb.com/title/tt14732926/
◎豆瓣评分 /10 from 0 users
◎豆瓣链接 https://movie.douban.com/subject/35905142/
◎片  长 89分钟
◎导  演 
◎编  剧 
◎主  演 

◎简  介

  To Which We Belong is a documentary that highlights farmers and ranchers leaving behind conventional practices that are no longer profitable or sustainable. These unsung heroes are improving the health of our soil and sea to save their livelihoods -- and our planet.



Video
ID           : 1
Format       : AVC
Format/Info      : Advanced Video Codec
Format profile       : [email protected]
Format settings      : CABAC / 4 Ref Frames
Format settings, CABAC       : Yes
Format settings, Reference frames    : 4 frames
Codec ID         : V_MPEG4/ISO/AVC
Duration         : 1 h 29 min
Bit rate mode        : Constant
Bit rate         : 8 732 kb/s
Nominal bit rate     : 10 000 kb/s
Width        : 1 920 pixels
Height       : 1 080 pixels
Display aspect ratio     : 16:9
Frame rate mode      : Constant
Frame rate       : 23.976 (24000/1001) FPS
Color space      : YUV
Chroma subsampling       : 4:2:0
Bit depth        : 8 bits
Scan type        : Progressive
Bits/(Pixel*Frame)       : 0.176
Stream size      : 5.45 GiB (97%)
Default          : Yes
Forced       : No
Color range      : Limited
Color primaries      : BT.709
Transfer characteristics     : BT.709
Matrix coefficients      : BT.709

Audio
ID           : 2
Format       : E-AC-3
Format/Info      : Enhanced AC-3
Commercial name      : Dolby Digital Plus
Codec ID         : A_EAC3
Duration         : 1 h 29 min
Bit rate mode        : Constant
Bit rate         : 224 kb/s
Channel(s)       : 2 channels
Channel layout       : L R
Sampling rate        : 48.0 kHz
Frame rate       : 31.250 FPS (1536 SPF)
Compression mode     : Lossy
Stream size      : 143 MiB (3%)
Language         : English
Service kind         : Complete Main
Default          : Yes
Forced       : No

Text
ID           : 3
Format       : UTF-8
Codec ID         : S_TEXT/UTF8
Codec ID/Info        : UTF-8 Plain Text
Duration         : 1 h 25 min
Bit rate         : 93 b/s
Frame rate       : 0.311 FPS
Count of elements        : 1604
Stream size      : 58.9 KiB (0%)
Language         : English
Default          : No
Forced       : No



悠悠MP4_MP4电影下载_To Which We Belong To.Which.We.Belong.2021.1080p.AMZN.WEBRip.DDP2.0.x264-THR 5.59 GB
悠悠MP4_MP4电影下载_To Which We Belong To.Which.We.Belong.2021.1080p.AMZN.WEBRip.DDP2.0.x264-THR 5.59 GB
悠悠MP4_MP4电影下载_To Which We Belong To.Which.We.Belong.2021.1080p.AMZN.WEBRip.DDP2.0.x264-THR 5.59 GB

磁力链接

magnet:?xt=urn:btih:849f34d7593cb5bbb1c32046ebf04697a2443b97

上传的附件:
最新回复 (0)
返回
本站所有资源均收集自互联网,没有提供影片资源存储, 也未参与录制、上传,若本站收录的资源无意侵犯了您的权益, 请联系邮箱:gogoimgs#gmail.com(#[email protected])