[2018] [欧美] [x264-1080P] 正义制裁者 The.Punished.2018.1080p.AMZN.WEBRip.DDP2.0.x264-THR 3.87 GB

uump4 1月前

悠悠MP4_MP4电影下载_正义制裁者 The.Punished.2018.1080p.AMZN.WEBRip.DDP2.0.x264-THR 3.87 GB

◎片  名 正义制裁者 The Punished
◎年  代 2018
◎产  地 美国
◎类  别 
◎语  言 英语
◎上映日期 
◎IMDb评分  2.7/10 from 99 users
◎IMDb链接  https://www.imdb.com/title/tt9155048/
◎豆瓣评分 /10 from 0 users
◎豆瓣链接 https://movie.douban.com/subject/30359529/
◎片  长 
◎导  演 
◎编  剧 
◎主  演 

◎简  介

  Wolfgang, a professional mercenary for hire is thrust in the middle of a local dispute when hired by a wealthy benefactor. But when he develops a friendship with a young orphan and a local tour guide, he is torn between molikan.com his loyalty to violence for money, and righting wrongs in the name of innocents.



Video
ID        : 1
Format       : AVC
Format/Info      : Advanced Video Codec
Format profile      : [email protected]
Format settings      : CABAC / 4 Ref Frames
Format settings, CABAC    : Yes
Format settings, Reference frames  : 4 frames
Codec ID       : V_MPEG4/ISO/AVC
Duration       : 1 h 27 min
Bit rate mode      : Constant
Bit rate       : 6 105 kb/s
Nominal bit rate     : 10 000 kb/s
Width        : 1 920 pixels
Height       : 1 080 pixels
Display aspect ratio     : 16:9
Frame rate mode      : Constant
Frame rate       : 23.976 (24000/1001) FPS
Color space      : YUV
Chroma subsampling     : 4:2:0
Bit depth       : 8 bits
Scan type       : Progressive
Bits/(Pixel*Frame)     : 0.123
Stream size      : 3.73 GiB (96%)
Default       : Yes
Forced       : No
Color range      : Limited
Color primaries      : BT.709
Transfer characteristics    : BT.709
Matrix coefficients     : BT.709

Audio
ID        : 2
Format       : E-AC-3
Format/Info      : Enhanced AC-3
Commercial name      : Dolby Digital Plus
Codec ID       : A_EAC3
Duration       : 1 h 27 min
Bit rate mode      : Constant
Bit rate       : 224 kb/s
Channel(s)       : 2 channels
Channel layout      : L R
Sampling rate      : 48.0 kHz
Frame rate       : 31.250 FPS (1536 SPF)
Compression mode     : Lossy
Stream size      : 140 MiB (4%)
Language       : English
Service kind      : Complete Main
Default       : Yes
Forced       : No

Text
ID        : 3
Format       : UTF-8
Codec ID       : S_TEXT/UTF8
Codec ID/Info      : UTF-8 Plain Text
Duration       : 1 h 21 min
Bit rate       : 44 b/s
Frame rate       : 0.168 FPS
Count of elements     : 823
Stream size      : 26.4 KiB (0%)
Language       : English
Default       : No
Forced       : No


悠悠MP4_MP4电影下载_正义制裁者 The.Punished.2018.1080p.AMZN.WEBRip.DDP2.0.x264-THR 3.87 GB
悠悠MP4_MP4电影下载_正义制裁者 The.Punished.2018.1080p.AMZN.WEBRip.DDP2.0.x264-THR 3.87 GB
悠悠MP4_MP4电影下载_正义制裁者 The.Punished.2018.1080p.AMZN.WEBRip.DDP2.0.x264-THR 3.87 GB

磁力链接

magnet:?xt=urn:btih:d1faf7f210f9af6336f440da67587883bb9cb372
上传的附件:
最新回复 (0)
返回
本站所有资源均收集自互联网,没有提供影片资源存储, 也未参与录制、上传,若本站收录的资源无意侵犯了您的权益, 请联系邮箱:gogoimgs#gmail.com(#[email protected])