[2010] [欧美] [剧情] [x264-1080P] 我的幸福 My.Joy.2010.RUSSIAN.1080p.WEBRip.AAC2.0.x264-KUCHU 5.16 GB

uump4 1月前

悠悠MP4_MP4电影下载_我的幸福 My.Joy.2010.RUSSIAN.1080p.WEBRip.AAC2.0.x264-KUCHU 5.16 GB

◎片  名 我的幸福 Mein Glück / 我快乐你大镬(港) / 我的欢乐 / Schastye moe / My Joy
◎年  代 2010
◎产  地 德国 / 乌克兰 / 荷兰
◎类  别 剧情
◎语  言 德语 / 俄语
◎上映日期 2010-05-19(戛纳电影节) / 2010-11-17(法国)
◎IMDb评分  6.8/10 from 2449 users
◎IMDb链接  https://www.imdb.com/title/tt1646114/
◎豆瓣评分 6.9/10 from 181 users
◎豆瓣链接 https://movie.douban.com/subject/4824145/
◎片  长 127 分钟
◎导  演 谢尔盖·洛兹尼察 Sergei Loznitsa
◎编  剧 谢尔盖·洛兹尼察 Sergei Loznitsa
◎主  演 维克托·奈梅茨 Viktor Nemets
       Vladimir Golovin Vladimir Golovin
       阿列克谢·沃特考夫 Aleksey Vertkov
       Olga Shuvalova Olga Shuvalova
       鲍里斯·卡莫尔津 Boris Kamorzin
       弗拉德·伊凡诺夫 Vlad Ivanov
       谢尔盖·科列索夫 Sergei Kolesov
       文森兹·凯弗 Vinzenz Kiefer
       安德丽亚·萨瓦兹 Andrea Sawatzki

◎简  介

  « 我的幸福» (Mon Bonheur )讲述了长途货车司机Georgy的故事。Georgy 载着满满一车货物离开了家乡,但是他突然发现自己不得不借道错误的高速公路出口,而前方不知是何处。Georgy 试图返回原路,却渐渐转入一个俄罗斯村庄。爆发力和生存渴望比人性和善良更重要。货车司机的命运究竟如何……                                    
      "My Joy" is a tale of truck driver Georgy. Georgy leaves his home town with a load of goods, but he is forced to take a wrong turning on the motorway, and finds himself in the middle of nowhere. Georgy tries to find his way, but gradually, against his will, he becomes drawn in the daily life of a Russian village. In a place, where brutal force and survival instincts overcome humanity and common                                    
      sense, the truck driver’s story heads for a dead end...

◎获奖情况

  第63届戛纳电影节 (2010)
  主竞赛单元 金棕榈奖(提名)
  谢尔盖·洛兹尼察



Video
ID           : 1
Format       : AVC
Format/Info      : Advanced Video Codec
Format profile       : [email protected]
Format settings      : CABAC / 4 Ref Frames
Format settings, CABAC       : Yes
Format settings, Reference frames    : 4 frames
Codec ID         : V_MPEG4/ISO/AVC
Duration         : 2 h 2 min
Bit rate         : 5 693 kb/s
Width        : 1 920 pixels
Height       : 1 080 pixels
Display aspect ratio     : 16:9
Frame rate mode      : Constant
Frame rate       : 25.000 FPS
Color space      : YUV
Chroma subsampling       : 4:2:0
Bit depth        : 8 bits
Scan type        : Progressive
Bits/(Pixel*Frame)       : 0.110
Stream size      : 4.88 GiB (95%)
Default          : Yes
Forced       : No

Audio
ID           : 2
Format       : AAC LC
Format/Info      : Advanced Audio Codec Low Complexity
Codec ID         : A_AAC-2
Duration         : 2 h 2 min
Bit rate         : 317 kb/s
Channel(s)       : 2 channels
Channel layout       : L R
Sampling rate        : 48.0 kHz
Frame rate       : 46.875 FPS (1024 SPF)
Compression mode     : Lossy
Stream size      : 279 MiB (5%)
Language         : Russian
Default          : Yes
Forced       : No

Text #1
ID           : 3
Format       : UTF-8
Codec ID         : S_TEXT/UTF8
Codec ID/Info        : UTF-8 Plain Text
Duration         : 1 h 55 min
Bit rate         : 25 b/s
Frame rate       : 0.111 FPS
Count of elements        : 771
Stream size      : 21.5 KiB (0%)
Language         : English
Default          : Yes
Forced       : No

Text #2
ID           : 4
Format       : UTF-8
Codec ID         : S_TEXT/UTF8
Codec ID/Info        : UTF-8 Plain Text
Duration         : 1 h 55 min
Bit rate         : 23 b/s
Frame rate       : 0.110 FPS
Count of elements        : 763
Stream size      : 19.9 KiB (0%)
Language         : Spanish
Default          : No
Forced       : No



悠悠MP4_MP4电影下载_我的幸福 My.Joy.2010.RUSSIAN.1080p.WEBRip.AAC2.0.x264-KUCHU 5.16 GB
悠悠MP4_MP4电影下载_我的幸福 My.Joy.2010.RUSSIAN.1080p.WEBRip.AAC2.0.x264-KUCHU 5.16 GB
悠悠MP4_MP4电影下载_我的幸福 My.Joy.2010.RUSSIAN.1080p.WEBRip.AAC2.0.x264-KUCHU 5.16 GB

磁力链接

magnet:?xt=urn:btih:927d63b805c2595fa2a5a6cfe4adc75805dfa314

上传的附件:
最新回复 (0)
返回
本站所有资源均收集自互联网,没有提供影片资源存储, 也未参与录制、上传,若本站收录的资源无意侵犯了您的权益, 请联系邮箱:gogoimgs#gmail.com(#[email protected])