[2022] [欧美] [喜剧] [x264-1080P] 心之歌 Heartsong.2022.TURKISH.1080p.NF.WEBRip.DDP5.1.x264-SMURF 3.12 GB

uump4 1月前

悠悠MP4_MP4电影下载_心之歌 Heartsong.2022.TURKISH.1080p.NF.WEBRip.DDP5.1.x264-SMURF 3.12 GB

◎片  名 心之歌 Heartsong / Gönül
◎年  代 2022
◎产  地 土耳其
◎类  别 剧情 / 喜剧 / 爱情 / 音乐
◎语  言 土耳其语
◎上映日期 2022-08-10(美国)
◎IMDb评分  6.9/10 from 9 users
◎IMDb链接  https://www.imdb.com/title/tt21339860/
◎豆瓣评分 /10 from 0 users
◎豆瓣链接 https://movie.douban.com/subject/36053974/
◎片  长 95分钟
◎导  演 
◎编  剧 
◎主  演  Erkan Kolçak Köstendil
       哈扎尔·埃尔居奇卢 Hazar Ergüçlü
       Bülent Emin Yarar Bülent Emin Yarar
       赛里木·拜拉科塔 Selim Bayraktar
       Sevval Sam Sevval Sam
       Asiye Dinçsoy Asiye Dinçsoy
       纳兹米·齐立克 Nazmî Kirik

◎简  介

  一名游牧乐手在婚礼上演奏时爱上了新娘, 而这场婚礼很快就爆发了冲突,新娘也与家人反目。



Video
ID           : 1
Format       : AVC
Format/Info      : Advanced Video Codec
Format profile       : [email protected]
Format settings      : CABAC / 3 Ref Frames
Format settings, CABAC       : Yes
Format settings, Reference frames    : 3 frames
Codec ID         : V_MPEG4/ISO/AVC
Duration         : 1 h 35 min
Bit rate mode        : Variable
Bit rate         : 3 382 kb/s
Nominal bit rate     : 4 420 kb/s
Maximum bit rate     : 6 630 kb/s
Width        : 1 920 pixels
Height       : 1 080 pixels
Display aspect ratio     : 16:9
Frame rate mode      : Constant
Frame rate       : 24.000 FPS
Color space      : YUV
Chroma subsampling       : 4:2:0
Bit depth        : 8 bits
Scan type        : Progressive
Bits/(Pixel*Frame)       : 0.068
Stream size      : 2.26 GiB (72%)
Writing library      : x264 core 148 r2727 7d026e8
Encoding settings        : cabac=1 / ref=3 / deblock=1:0:0 / analyse=0x1:0x111 / me=umh / subme=10 / psy=1 / psy_rd=1.00:0.00 / mixed_ref=1 / me_range=24 / chroma_me=1 / trellis=2 / 8x8dct=0 / cqm=0 / deadzone=21,11 / fast_pskip=1 / chroma_qp_offset=-2 / threads=8 / lookahead_threads=1 / sliced_threads=0 / nr=0 / decimate=1 / interlaced=0 / bluray_compat=0 / stitchable=1 / constrained_intra=0 / bframes=2 / b_pyramid=0 / b_adapt=2 / b_bias=0 / direct=3 / weightb=1 / open_gop=0 / weightp=2 / keyint=250 / keyint_min=24 / scenecut=0 / intra_refresh=0 / rc_lookahead=48 / rc=2pass / mbtree=1 / bitrate=4420 / ratetol=1.0 / qcomp=0.50 / qpmin=6 / qpmax=51 / qpstep=4 / cplxblur=20.0 / qblur=0.5 / vbv_maxrate=6630 / vbv_bufsize=8840 / nal_hrd=vbr / filler=0 / ip_ratio=1.40 / aq=1:1.00
Language         : Turkish
Default          : Yes
Forced       : No

Audio #1
ID           : 2
Format       : E-AC-3
Format/Info      : Enhanced AC-3
Commercial name      : Dolby Digital Plus
Codec ID         : A_EAC3
Duration         : 1 h 35 min
Bit rate mode        : Constant
Bit rate         : 640 kb/s
Channel(s)       : 6 channels
Channel layout       : L R C LFE Ls Rs
Sampling rate        : 48.0 kHz
Frame rate       : 31.250 FPS (1536 SPF)
Compression mode     : Lossy
Stream size      : 439 MiB (14%)
Language         : Turkish
Service kind         : Complete Main
Default          : Yes
Forced       : No

Audio #2
ID           : 3
Format       : E-AC-3
Format/Info      : Enhanced AC-3
Commercial name      : Dolby Digital Plus
Codec ID         : A_EAC3
Duration         : 1 h 35 min
Bit rate mode        : Constant
Bit rate         : 640 kb/s
Channel(s)       : 6 channels
Channel layout       : L R C LFE Ls Rs
Sampling rate        : 48.0 kHz
Frame rate       : 31.250 FPS (1536 SPF)
Compression mode     : Lossy
Stream size      : 439 MiB (14%)
Language         : English
Service kind         : Complete Main
Default          : No
Forced       : No

Text #1
ID           : 4
Format       : UTF-8
Codec ID         : S_TEXT/UTF8
Codec ID/Info        : UTF-8 Plain Text
Duration         : 2 min 2 s
Bit rate         : 63 b/s
Frame rate       : 0.228 FPS
Count of elements        : 28
Stream size      : 967 Bytes (0%)
Title        : Forced
Language         : Turkish
Default          : Yes
Forced       : Yes

Text #2
ID           : 5
Format       : UTF-8
Codec ID         : S_TEXT/UTF8
Codec ID/Info        : UTF-8 Plain Text
Duration         : 1 h 25 min
Bit rate         : 39 b/s
Frame rate       : 0.194 FPS
Count of elements        : 991
Stream size      : 24.6 KiB (0%)
Language         : Turkish
Default          : No
Forced       : No

Text #3
ID           : 6
Format       : UTF-8
Codec ID         : S_TEXT/UTF8
Codec ID/Info        : UTF-8 Plain Text
Duration         : 1 h 34 min
Bit rate         : 61 b/s
Frame rate       : 0.276 FPS
Count of elements        : 1559
Stream size      : 42.7 KiB (0%)
Title        : SDH
Language         : Turkish
Default          : No
Forced       : No

Text #4
ID           : 7
Format       : UTF-8
Codec ID         : S_TEXT/UTF8
Codec ID/Info        : UTF-8 Plain Text
Duration         : 1 h 35 min
Bit rate         : 66 b/s
Frame rate       : 0.173 FPS
Count of elements        : 986
Stream size      : 46.6 KiB (0%)
Language         : Arabic
Default          : No
Forced       : No

Text #5
ID           : 8
Format       : UTF-8
Codec ID         : S_TEXT/UTF8
Codec ID/Info        : UTF-8 Plain Text
Duration         : 1 h 35 min
Bit rate         : 34 b/s
Frame rate       : 0.175 FPS
Count of elements        : 997
Stream size      : 24.2 KiB (0%)
Language         : Czech
Default          : No
Forced       : No

Text #6
ID           : 9
Format       : UTF-8
Codec ID         : S_TEXT/UTF8
Codec ID/Info        : UTF-8 Plain Text
Duration         : 1 h 35 min
Bit rate         : 36 b/s
Frame rate       : 0.155 FPS
Count of elements        : 884
Stream size      : 25.2 KiB (0%)
Language         : Danish
Default          : No
Forced       : No

Text #7
ID           : 10
Format       : UTF-8
Codec ID         : S_TEXT/UTF8
Codec ID/Info        : UTF-8 Plain Text
Duration         : 1 h 35 min
Bit rate         : 35 b/s
Frame rate       : 0.168 FPS
Count of elements        : 961
Stream size      : 24.6 KiB (0%)
Language         : German
Default          : No
Forced       : No

Text #8
ID           : 11
Format       : UTF-8
Codec ID         : S_TEXT/UTF8
Codec ID/Info        : UTF-8 Plain Text
Duration         : 1 h 35 min
Bit rate         : 60 b/s
Frame rate       : 0.174 FPS
Count of elements        : 990
Stream size      : 41.9 KiB (0%)
Language         : Greek
Default          : No
Forced       : No

Text #9
ID           : 12
Format       : UTF-8
Codec ID         : S_TEXT/UTF8
Codec ID/Info        : UTF-8 Plain Text
Duration         : 1 h 25 min
Bit rate         : 45 b/s
Frame rate       : 0.173 FPS
Count of elements        : 891
Stream size      : 28.3 KiB (0%)
Language         : English
Default          : No
Forced       : No

Text #10
ID           : 13
Format       : UTF-8
Codec ID         : S_TEXT/UTF8
Codec ID/Info        : UTF-8 Plain Text
Duration         : 1 h 35 min
Bit rate         : 37 b/s
Frame rate       : 0.177 FPS
Count of elements        : 1008
Stream size      : 26.3 KiB (0%)
Language         : English
Default          : No
Forced       : No

Text #11
ID           : 14
Format       : UTF-8
Codec ID         : S_TEXT/UTF8
Codec ID/Info        : UTF-8 Plain Text
Duration         : 1 h 32 min
Bit rate         : 53 b/s
Frame rate       : 0.210 FPS
Count of elements        : 1172
Stream size      : 36.6 KiB (0%)
Title        : SDH
Language         : English
Default          : No
Forced       : No

Text #12
ID           : 15
Format       : UTF-8
Codec ID         : S_TEXT/UTF8
Codec ID/Info        : UTF-8 Plain Text
Duration         : 1 h 35 min
Bit rate         : 34 b/s
Frame rate       : 0.175 FPS
Count of elements        : 996
Stream size      : 23.8 KiB (0%)
Language         : Spanish
Default          : No
Forced       : No

Text #13
ID           : 16
Format       : UTF-8
Codec ID         : S_TEXT/UTF8
Codec ID/Info        : UTF-8 Plain Text
Duration         : 1 h 35 min
Bit rate         : 36 b/s
Frame rate       : 0.172 FPS
Count of elements        : 984
Stream size      : 25.2 KiB (0%)
Title        : European
Language         : Spanish
Default          : No
Forced       : No

Text #14
ID           : 17
Format       : UTF-8
Codec ID         : S_TEXT/UTF8
Codec ID/Info        : UTF-8 Plain Text
Duration         : 1 h 35 min
Bit rate         : 34 b/s
Frame rate       : 0.148 FPS
Count of elements        : 842
Stream size      : 23.8 KiB (0%)
Language         : Finnish
Default          : No
Forced       : No

Text #15
ID           : 18
Format       : UTF-8
Codec ID         : S_TEXT/UTF8
Codec ID/Info        : UTF-8 Plain Text
Duration         : 1 h 35 min
Bit rate         : 39 b/s
Frame rate       : 0.177 FPS
Count of elements        : 1012
Stream size      : 27.3 KiB (0%)
Language         : fil
Default          : No
Forced       : No

Text #16
ID           : 19
Format       : UTF-8
Codec ID         : S_TEXT/UTF8
Codec ID/Info        : UTF-8 Plain Text
Duration         : 1 h 35 min
Bit rate         : 35 b/s
Frame rate       : 0.170 FPS
Count of elements        : 969
Stream size      : 24.4 KiB (0%)
Language         : French
Default          : No
Forced       : No

Text #17
ID           : 20
Format       : UTF-8
Codec ID         : S_TEXT/UTF8
Codec ID/Info        : UTF-8 Plain Text
Duration         : 1 h 35 min
Bit rate         : 57 b/s
Frame rate       : 0.177 FPS
Count of elements        : 1011
Stream size      : 39.9 KiB (0%)
Language         : Hebrew
Default          : No
Forced       : No

Text #18
ID           : 21
Format       : UTF-8
Codec ID         : S_TEXT/UTF8
Codec ID/Info        : UTF-8 Plain Text
Duration         : 1 h 35 min
Bit rate         : 31 b/s
Frame rate       : 0.170 FPS
Count of elements        : 970
Stream size      : 22.3 KiB (0%)
Language         : Croatian
Default          : No
Forced       : No

Text #19
ID           : 22
Format       : UTF-8
Codec ID         : S_TEXT/UTF8
Codec ID/Info        : UTF-8 Plain Text
Duration         : 1 h 35 min
Bit rate         : 37 b/s
Frame rate       : 0.174 FPS
Count of elements        : 994
Stream size      : 26.2 KiB (0%)
Language         : Hungarian
Default          : No
Forced       : No

Text #20
ID           : 23
Format       : UTF-8
Codec ID         : S_TEXT/UTF8
Codec ID/Info        : UTF-8 Plain Text
Duration         : 1 h 35 min
Bit rate         : 37 b/s
Frame rate       : 0.175 FPS
Count of elements        : 1001
Stream size      : 25.8 KiB (0%)
Language         : Indonesian
Default          : No
Forced       : No

Text #21
ID           : 24
Format       : UTF-8
Codec ID         : S_TEXT/UTF8
Codec ID/Info        : UTF-8 Plain Text
Duration         : 1 h 35 min
Bit rate         : 34 b/s
Frame rate       : 0.177 FPS
Count of elements        : 1010
Stream size      : 24.1 KiB (0%)
Language         : Italian
Default          : No
Forced       : No

Text #22
ID           : 25
Format       : UTF-8
Codec ID         : S_TEXT/UTF8
Codec ID/Info        : UTF-8 Plain Text
Duration         : 1 h 35 min
Bit rate         : 37 b/s
Frame rate       : 0.172 FPS
Count of elements        : 983
Stream size      : 25.9 KiB (0%)
Language         : Japanese
Default          : No
Forced       : No

Text #23
ID           : 26
Format       : UTF-8
Codec ID         : S_TEXT/UTF8
Codec ID/Info        : UTF-8 Plain Text
Duration         : 1 h 35 min
Bit rate         : 45 b/s
Frame rate       : 0.177 FPS
Count of elements        : 1007
Stream size      : 31.9 KiB (0%)
Language         : Korean
Default          : No
Forced       : No

Text #24
ID           : 27
Format       : UTF-8
Codec ID         : S_TEXT/UTF8
Codec ID/Info        : UTF-8 Plain Text
Duration         : 1 h 35 min
Bit rate         : 35 b/s
Frame rate       : 0.175 FPS
Count of elements        : 997
Stream size      : 24.9 KiB (0%)
Language         : Malay
Default          : No
Forced       : No

Text #25
ID           : 28
Format       : UTF-8
Codec ID         : S_TEXT/UTF8
Codec ID/Info        : UTF-8 Plain Text
Duration         : 1 h 35 min
Bit rate         : 34 b/s
Frame rate       : 0.159 FPS
Count of elements        : 909
Stream size      : 24.3 KiB (0%)
Language         : Norwegian Bokmal
Default          : No
Forced       : No

Text #26
ID           : 29
Format       : UTF-8
Codec ID         : S_TEXT/UTF8
Codec ID/Info        : UTF-8 Plain Text
Duration         : 1 h 35 min
Bit rate         : 33 b/s
Frame rate       : 0.161 FPS
Count of elements        : 918
Stream size      : 23.7 KiB (0%)
Language         : Dutch
Default          : No
Forced       : No

Text #27
ID           : 30
Format       : UTF-8
Codec ID         : S_TEXT/UTF8
Codec ID/Info        : UTF-8 Plain Text
Duration         : 1 h 35 min
Bit rate         : 36 b/s
Frame rate       : 0.172 FPS
Count of elements        : 982
Stream size      : 25.1 KiB (0%)
Language         : Polish
Default          : No
Forced       : No

Text #28
ID           : 31
Format       : UTF-8
Codec ID         : S_TEXT/UTF8
Codec ID/Info        : UTF-8 Plain Text
Duration         : 1 h 35 min
Bit rate         : 36 b/s
Frame rate       : 0.175 FPS
Count of elements        : 996
Stream size      : 25.5 KiB (0%)
Language         : Portuguese
Default          : No
Forced       : No

Text #29
ID           : 32
Format       : UTF-8
Codec ID         : S_TEXT/UTF8
Codec ID/Info        : UTF-8 Plain Text
Duration         : 1 h 35 min
Bit rate         : 35 b/s
Frame rate       : 0.177 FPS
Count of elements        : 1009
Stream size      : 24.8 KiB (0%)
Title        : Brazilian
Language         : Portuguese
Default          : No
Forced       : No

Text #30
ID           : 33
Format       : UTF-8
Codec ID         : S_TEXT/UTF8
Codec ID/Info        : UTF-8 Plain Text
Duration         : 1 h 35 min
Bit rate         : 40 b/s
Frame rate       : 0.172 FPS
Count of elements        : 982
Stream size      : 28.2 KiB (0%)
Language         : Romanian
Default          : No
Forced       : No

Text #31
ID           : 34
Format       : UTF-8
Codec ID         : S_TEXT/UTF8
Codec ID/Info        : UTF-8 Plain Text
Duration         : 1 h 35 min
Bit rate         : 56 b/s
Frame rate       : 0.175 FPS
Count of elements        : 996
Stream size      : 39.2 KiB (0%)
Language         : Russian
Default          : No
Forced       : No

Text #32
ID           : 35
Format       : UTF-8
Codec ID         : S_TEXT/UTF8
Codec ID/Info        : UTF-8 Plain Text
Duration         : 1 h 35 min
Bit rate         : 36 b/s
Frame rate       : 0.146 FPS
Count of elements        : 831
Stream size      : 25.2 KiB (0%)
Language         : Swedish
Default          : No
Forced       : No

Text #33
ID           : 36
Format       : UTF-8
Codec ID         : S_TEXT/UTF8
Codec ID/Info        : UTF-8 Plain Text
Duration         : 1 h 35 min
Bit rate         : 97 b/s
Frame rate       : 0.177 FPS
Count of elements        : 1010
Stream size      : 67.7 KiB (0%)
Language         : Thai
Default          : No
Forced       : No

Text #34
ID           : 37
Format       : UTF-8
Codec ID         : S_TEXT/UTF8
Codec ID/Info        : UTF-8 Plain Text
Duration         : 1 h 35 min
Bit rate         : 57 b/s
Frame rate       : 0.177 FPS
Count of elements        : 1010
Stream size      : 40.3 KiB (0%)
Language         : Ukrainian
Default          : No
Forced       : No

Text #35
ID           : 38
Format       : UTF-8
Codec ID         : S_TEXT/UTF8
Codec ID/Info        : UTF-8 Plain Text
Duration         : 1 h 35 min
Bit rate         : 52 b/s
Frame rate       : 0.175 FPS
Count of elements        : 996
Stream size      : 36.5 KiB (0%)
Language         : Vietnamese
Default          : No
Forced       : No

Text #36
ID           : 39
Format       : UTF-8
Codec ID         : S_TEXT/UTF8
Codec ID/Info        : UTF-8 Plain Text
Duration         : 1 h 35 min
Bit rate         : 41 b/s
Frame rate       : 0.177 FPS
Count of elements        : 1011
Stream size      : 28.8 KiB (0%)
Title        : Simplified
Language         : Chinese
Default          : No
Forced       : No

Text #37
ID           : 40
Format       : UTF-8
Codec ID         : S_TEXT/UTF8
Codec ID/Info        : UTF-8 Plain Text
Duration         : 1 h 30 min
Bit rate         : 41 b/s
Frame rate       : 0.185 FPS
Count of elements        : 1011
Stream size      : 27.3 KiB (0%)
Title        : Traditional
Language         : Chinese
Default          : No
Forced       : No



悠悠MP4_MP4电影下载_心之歌 Heartsong.2022.TURKISH.1080p.NF.WEBRip.DDP5.1.x264-SMURF 3.12 GB
悠悠MP4_MP4电影下载_心之歌 Heartsong.2022.TURKISH.1080p.NF.WEBRip.DDP5.1.x264-SMURF 3.12 GB
悠悠MP4_MP4电影下载_心之歌 Heartsong.2022.TURKISH.1080p.NF.WEBRip.DDP5.1.x264-SMURF 3.12 GB

磁力链接

magnet:?xt=urn:btih:e77dfe13002d9161f56786bc25d8c2498d003abe

上传的附件:
最新回复 (0)
返回
本站所有资源均收集自互联网,没有提供影片资源存储, 也未参与录制、上传,若本站收录的资源无意侵犯了您的权益, 请联系邮箱:gogoimgs#gmail.com(#[email protected])