[2022] [欧美] [纪录] [x265-1080P] 银行大盗:神级劫案 Bank.Robbers.The.Last.Great.Heist.2022.SPANISH.1080p.NF.WEB-DL.x265.10bit.HDR.DDP5.1-SMURF 5.09 GB

uump4 1月前

悠悠MP4_MP4电影下载_银行大盗:神级劫案 Bank.Robbers.The.Last.Great.Heist.2022.SPANISH.1080p.NF.WEB-DL.x265.10bit.HDR.DDP5.1-SMURF 5.09 GB

◎片  名 银行大盗:神级劫案 Los Ladrones: La verdadera historia del robo del siglo / Bank Robbers: The Last Great Heist
◎年  代 2022
◎产  地 阿根廷
◎类  别 纪录片
◎语  言 西班牙语
◎上映日期 2022-08-10(阿根廷)
◎IMDb评分 
◎IMDb链接  https://www.imdb.com/title/tt21281774/
◎豆瓣评分 /10 from 0 users
◎豆瓣链接 https://movie.douban.com/subject/36053412/
◎片  长 109分钟
◎导  演 
◎编  剧 
◎主  演 

◎简  介

  通过坦率的访谈,参与这起阿根廷最著名银行劫案的罪犯详细讲述了他们如何以及为何在2006年实施了这起激进行动



Video
ID           : 1
Format       : HEVC
Format/Info      : High Efficiency Video Coding
Format profile       : Main [email protected]@Main
HDR format       : SMPTE ST 2086, HDR10 compatible
Codec ID         : V_MPEGH/ISO/HEVC
Duration         : 1 h 49 min
Bit rate         : 5 362 kb/s
Width        : 1 920 pixels
Height       : 1 080 pixels
Display aspect ratio     : 16:9
Frame rate mode      : Constant
Frame rate       : 24.000 FPS
Color space      : YUV
Chroma subsampling       : 4:2:0 (Type 2)
Bit depth        : 10 bits
Bits/(Pixel*Frame)       : 0.108
Stream size      : 4.10 GiB (81%)
Language         : Spanish
Default          : Yes
Forced       : No
Color range      : Limited
Color primaries      : BT.2020
Transfer characteristics     : PQ
Matrix coefficients      : BT.2020 non-constant
Mastering display color primaries    : Display P3
Mastering display luminance      : min: 0.0001 cd/m2, max: 1000 cd/m2
Maximum Content Light Level      : 1209 cd/m2
Maximum Frame-Average Light Level    : 165 cd/m2

Audio #1
ID           : 2
Format       : E-AC-3
Format/Info      : Enhanced AC-3
Commercial name      : Dolby Digital Plus
Codec ID         : A_EAC3
Duration         : 1 h 50 min
Bit rate mode        : Constant
Bit rate         : 640 kb/s
Channel(s)       : 6 channels
Channel layout       : L R C LFE Ls Rs
Sampling rate        : 48.0 kHz
Frame rate       : 31.250 FPS (1536 SPF)
Compression mode     : Lossy
Stream size      : 504 MiB (10%)
Language         : Spanish
Service kind         : Complete Main
Default          : Yes
Forced       : No

Audio #2
ID           : 3
Format       : E-AC-3
Format/Info      : Enhanced AC-3
Commercial name      : Dolby Digital Plus
Codec ID         : A_EAC3
Duration         : 1 h 50 min
Bit rate mode        : Constant
Bit rate         : 640 kb/s
Channel(s)       : 6 channels
Channel layout       : L R C LFE Ls Rs
Sampling rate        : 48.0 kHz
Frame rate       : 31.250 FPS (1536 SPF)
Compression mode     : Lossy
Stream size      : 504 MiB (10%)
Language         : English
Service kind         : Complete Main
Default          : No
Forced       : No

Text #1
ID           : 4
Format       : UTF-8
Codec ID         : S_TEXT/UTF8
Codec ID/Info        : UTF-8 Plain Text
Duration         : 39 min 57 s
Bit rate         : 0 b/s
Frame rate       : 0.003 FPS
Count of elements        : 6
Stream size      : 143 Bytes (0%)
Title        : Forced
Language         : Spanish
Default          : Yes
Forced       : Yes

Text #2
ID           : 5
Format       : UTF-8
Codec ID         : S_TEXT/UTF8
Codec ID/Info        : UTF-8 Plain Text
Duration         : 1 h 47 min
Bit rate         : 81 b/s
Frame rate       : 0.238 FPS
Count of elements        : 1535
Stream size      : 63.9 KiB (0%)
Language         : Spanish
Default          : No
Forced       : No

Text #3
ID           : 6
Format       : UTF-8
Codec ID         : S_TEXT/UTF8
Codec ID/Info        : UTF-8 Plain Text
Duration         : 1 h 47 min
Bit rate         : 86 b/s
Frame rate       : 0.253 FPS
Count of elements        : 1636
Stream size      : 68.0 KiB (0%)
Title        : SDH
Language         : Spanish
Default          : No
Forced       : No

Text #4
ID           : 7
Format       : UTF-8
Codec ID         : S_TEXT/UTF8
Codec ID/Info        : UTF-8 Plain Text
Duration         : 1 h 49 min
Bit rate         : 114 b/s
Frame rate       : 0.222 FPS
Count of elements        : 1452
Stream size      : 91.6 KiB (0%)
Language         : Arabic
Default          : No
Forced       : No

Text #5
ID           : 8
Format       : UTF-8
Codec ID         : S_TEXT/UTF8
Codec ID/Info        : UTF-8 Plain Text
Duration         : 1 h 49 min
Bit rate         : 74 b/s
Frame rate       : 0.224 FPS
Count of elements        : 1467
Stream size      : 59.3 KiB (0%)
Language         : Czech
Default          : No
Forced       : No

Text #6
ID           : 9
Format       : UTF-8
Codec ID         : S_TEXT/UTF8
Codec ID/Info        : UTF-8 Plain Text
Duration         : 1 h 49 min
Bit rate         : 65 b/s
Frame rate       : 0.219 FPS
Count of elements        : 1431
Stream size      : 52.1 KiB (0%)
Language         : Danish
Default          : No
Forced       : No

Text #7
ID           : 10
Format       : UTF-8
Codec ID         : S_TEXT/UTF8
Codec ID/Info        : UTF-8 Plain Text
Duration         : 1 h 49 min
Bit rate         : 73 b/s
Frame rate       : 0.206 FPS
Count of elements        : 1346
Stream size      : 58.6 KiB (0%)
Language         : German
Default          : No
Forced       : No

Text #8
ID           : 11
Format       : UTF-8
Codec ID         : S_TEXT/UTF8
Codec ID/Info        : UTF-8 Plain Text
Duration         : 1 h 49 min
Bit rate         : 122 b/s
Frame rate       : 0.221 FPS
Count of elements        : 1443
Stream size      : 97.7 KiB (0%)
Language         : Greek
Default          : No
Forced       : No

Text #9
ID           : 12
Format       : UTF-8
Codec ID         : S_TEXT/UTF8
Codec ID/Info        : UTF-8 Plain Text
Duration         : 1 h 47 min
Bit rate         : 82 b/s
Frame rate       : 0.226 FPS
Count of elements        : 1461
Stream size      : 65.0 KiB (0%)
Language         : English
Default          : No
Forced       : No

Text #10
ID           : 13
Format       : UTF-8
Codec ID         : S_TEXT/UTF8
Codec ID/Info        : UTF-8 Plain Text
Duration         : 1 h 47 min
Bit rate         : 73 b/s
Frame rate       : 0.229 FPS
Count of elements        : 1480
Stream size      : 58.1 KiB (0%)
Language         : English
Default          : No
Forced       : No

Text #11
ID           : 14
Format       : UTF-8
Codec ID         : S_TEXT/UTF8
Codec ID/Info        : UTF-8 Plain Text
Duration         : 1 h 49 min
Bit rate         : 88 b/s
Frame rate       : 0.248 FPS
Count of elements        : 1620
Stream size      : 71.1 KiB (0%)
Title        : SDH
Language         : English
Default          : No
Forced       : No

Text #12
ID           : 15
Format       : UTF-8
Codec ID         : S_TEXT/UTF8
Codec ID/Info        : UTF-8 Plain Text
Duration         : 1 h 49 min
Bit rate         : 69 b/s
Frame rate       : 0.195 FPS
Count of elements        : 1276
Stream size      : 55.6 KiB (0%)
Language         : Finnish
Default          : No
Forced       : No

Text #13
ID           : 16
Format       : UTF-8
Codec ID         : S_TEXT/UTF8
Codec ID/Info        : UTF-8 Plain Text
Duration         : 1 h 49 min
Bit rate         : 74 b/s
Frame rate       : 0.215 FPS
Count of elements        : 1409
Stream size      : 59.7 KiB (0%)
Language         : fil
Default          : No
Forced       : No

Text #14
ID           : 17
Format       : UTF-8
Codec ID         : S_TEXT/UTF8
Codec ID/Info        : UTF-8 Plain Text
Duration         : 1 h 49 min
Bit rate         : 74 b/s
Frame rate       : 0.232 FPS
Count of elements        : 1519
Stream size      : 59.6 KiB (0%)
Language         : French
Default          : No
Forced       : No

Text #15
ID           : 18
Format       : UTF-8
Codec ID         : S_TEXT/UTF8
Codec ID/Info        : UTF-8 Plain Text
Duration         : 1 h 49 min
Bit rate         : 110 b/s
Frame rate       : 0.214 FPS
Count of elements        : 1402
Stream size      : 87.9 KiB (0%)
Language         : Hebrew
Default          : No
Forced       : No

Text #16
ID           : 19
Format       : UTF-8
Codec ID         : S_TEXT/UTF8
Codec ID/Info        : UTF-8 Plain Text
Duration         : 1 h 49 min
Bit rate         : 66 b/s
Frame rate       : 0.204 FPS
Count of elements        : 1334
Stream size      : 52.9 KiB (0%)
Language         : Croatian
Default          : No
Forced       : No

Text #17
ID           : 20
Format       : UTF-8
Codec ID         : S_TEXT/UTF8
Codec ID/Info        : UTF-8 Plain Text
Duration         : 1 h 49 min
Bit rate         : 67 b/s
Frame rate       : 0.223 FPS
Count of elements        : 1458
Stream size      : 54.0 KiB (0%)
Language         : Hungarian
Default          : No
Forced       : No

Text #18
ID           : 21
Format       : UTF-8
Codec ID         : S_TEXT/UTF8
Codec ID/Info        : UTF-8 Plain Text
Duration         : 1 h 49 min
Bit rate         : 68 b/s
Frame rate       : 0.203 FPS
Count of elements        : 1330
Stream size      : 55.1 KiB (0%)
Language         : Indonesian
Default          : No
Forced       : No

Text #19
ID           : 22
Format       : UTF-8
Codec ID         : S_TEXT/UTF8
Codec ID/Info        : UTF-8 Plain Text
Duration         : 1 h 49 min
Bit rate         : 69 b/s
Frame rate       : 0.221 FPS
Count of elements        : 1449
Stream size      : 55.4 KiB (0%)
Language         : Italian
Default          : No
Forced       : No

Text #20
ID           : 23
Format       : UTF-8
Codec ID         : S_TEXT/UTF8
Codec ID/Info        : UTF-8 Plain Text
Duration         : 1 h 49 min
Bit rate         : 70 b/s
Frame rate       : 0.212 FPS
Count of elements        : 1386
Stream size      : 56.3 KiB (0%)
Language         : Japanese
Default          : No
Forced       : No

Text #21
ID           : 24
Format       : UTF-8
Codec ID         : S_TEXT/UTF8
Codec ID/Info        : UTF-8 Plain Text
Duration         : 1 h 49 min
Bit rate         : 88 b/s
Frame rate       : 0.227 FPS
Count of elements        : 1482
Stream size      : 70.5 KiB (0%)
Language         : Korean
Default          : No
Forced       : No

Text #22
ID           : 25
Format       : UTF-8
Codec ID         : S_TEXT/UTF8
Codec ID/Info        : UTF-8 Plain Text
Duration         : 1 h 48 min
Bit rate         : 74 b/s
Frame rate       : 0.211 FPS
Count of elements        : 1383
Stream size      : 59.5 KiB (0%)
Language         : Malay
Default          : No
Forced       : No

Text #23
ID           : 26
Format       : UTF-8
Codec ID         : S_TEXT/UTF8
Codec ID/Info        : UTF-8 Plain Text
Duration         : 1 h 49 min
Bit rate         : 66 b/s
Frame rate       : 0.188 FPS
Count of elements        : 1230
Stream size      : 52.7 KiB (0%)
Language         : Norwegian Bokmal
Default          : No
Forced       : No

Text #24
ID           : 27
Format       : UTF-8
Codec ID         : S_TEXT/UTF8
Codec ID/Info        : UTF-8 Plain Text
Duration         : 1 h 47 min
Bit rate         : 67 b/s
Frame rate       : 0.205 FPS
Count of elements        : 1326
Stream size      : 53.5 KiB (0%)
Language         : Dutch
Default          : No
Forced       : No

Text #25
ID           : 28
Format       : UTF-8
Codec ID         : S_TEXT/UTF8
Codec ID/Info        : UTF-8 Plain Text
Duration         : 1 h 49 min
Bit rate         : 70 b/s
Frame rate       : 0.213 FPS
Count of elements        : 1392
Stream size      : 56.5 KiB (0%)
Language         : Polish
Default          : No
Forced       : No

Text #26
ID           : 29
Format       : UTF-8
Codec ID         : S_TEXT/UTF8
Codec ID/Info        : UTF-8 Plain Text
Duration         : 1 h 47 min
Bit rate         : 73 b/s
Frame rate       : 0.220 FPS
Count of elements        : 1424
Stream size      : 58.2 KiB (0%)
Language         : Portuguese
Default          : No
Forced       : No

Text #27
ID           : 30
Format       : UTF-8
Codec ID         : S_TEXT/UTF8
Codec ID/Info        : UTF-8 Plain Text
Duration         : 1 h 49 min
Bit rate         : 68 b/s
Frame rate       : 0.223 FPS
Count of elements        : 1459
Stream size      : 54.9 KiB (0%)
Title        : Brazilian
Language         : Portuguese
Default          : No
Forced       : No

Text #28
ID           : 31
Format       : UTF-8
Codec ID         : S_TEXT/UTF8
Codec ID/Info        : UTF-8 Plain Text
Duration         : 1 h 49 min
Bit rate         : 76 b/s
Frame rate       : 0.207 FPS
Count of elements        : 1353
Stream size      : 61.1 KiB (0%)
Language         : Romanian
Default          : No
Forced       : No

Text #29
ID           : 32
Format       : UTF-8
Codec ID         : S_TEXT/UTF8
Codec ID/Info        : UTF-8 Plain Text
Duration         : 1 h 49 min
Bit rate         : 118 b/s
Frame rate       : 0.217 FPS
Count of elements        : 1417
Stream size      : 94.9 KiB (0%)
Language         : Russian
Default          : No
Forced       : No

Text #30
ID           : 33
Format       : UTF-8
Codec ID         : S_TEXT/UTF8
Codec ID/Info        : UTF-8 Plain Text
Duration         : 1 h 49 min
Bit rate         : 71 b/s
Frame rate       : 0.172 FPS
Count of elements        : 1128
Stream size      : 57.3 KiB (0%)
Language         : Swedish
Default          : No
Forced       : No

Text #31
ID           : 34
Format       : UTF-8
Codec ID         : S_TEXT/UTF8
Codec ID/Info        : UTF-8 Plain Text
Duration         : 1 h 49 min
Bit rate         : 176 b/s
Frame rate       : 0.224 FPS
Count of elements        : 1467
Stream size      : 141 KiB (0%)
Language         : Thai
Default          : No
Forced       : No

Text #32
ID           : 35
Format       : UTF-8
Codec ID         : S_TEXT/UTF8
Codec ID/Info        : UTF-8 Plain Text
Duration         : 1 h 49 min
Bit rate         : 69 b/s
Frame rate       : 0.214 FPS
Count of elements        : 1403
Stream size      : 55.3 KiB (0%)
Language         : Turkish
Default          : No
Forced       : No

Text #33
ID           : 36
Format       : UTF-8
Codec ID         : S_TEXT/UTF8
Codec ID/Info        : UTF-8 Plain Text
Duration         : 1 h 49 min
Bit rate         : 114 b/s
Frame rate       : 0.219 FPS
Count of elements        : 1435
Stream size      : 91.3 KiB (0%)
Language         : Ukrainian
Default          : No
Forced       : No

Text #34
ID           : 37
Format       : UTF-8
Codec ID         : S_TEXT/UTF8
Codec ID/Info        : UTF-8 Plain Text
Duration         : 1 h 49 min
Bit rate         : 92 b/s
Frame rate       : 0.197 FPS
Count of elements        : 1287
Stream size      : 73.8 KiB (0%)
Language         : Vietnamese
Default          : No
Forced       : No

Text #35
ID           : 38
Format       : UTF-8
Codec ID         : S_TEXT/UTF8
Codec ID/Info        : UTF-8 Plain Text
Duration         : 1 h 49 min
Bit rate         : 68 b/s
Frame rate       : 0.223 FPS
Count of elements        : 1461
Stream size      : 54.9 KiB (0%)
Title        : Simplified
Language         : Chinese
Default          : No
Forced       : No

Text #36
ID           : 39
Format       : UTF-8
Codec ID         : S_TEXT/UTF8
Codec ID/Info        : UTF-8 Plain Text
Duration         : 1 h 49 min
Bit rate         : 62 b/s
Frame rate       : 0.225 FPS
Count of elements        : 1471
Stream size      : 49.5 KiB (0%)
Title        : Traditional
Language         : Chinese
Default          : No
Forced       : No



悠悠MP4_MP4电影下载_银行大盗:神级劫案 Bank.Robbers.The.Last.Great.Heist.2022.SPANISH.1080p.NF.WEB-DL.x265.10bit.HDR.DDP5.1-SMURF 5.09 GB
悠悠MP4_MP4电影下载_银行大盗:神级劫案 Bank.Robbers.The.Last.Great.Heist.2022.SPANISH.1080p.NF.WEB-DL.x265.10bit.HDR.DDP5.1-SMURF 5.09 GB
悠悠MP4_MP4电影下载_银行大盗:神级劫案 Bank.Robbers.The.Last.Great.Heist.2022.SPANISH.1080p.NF.WEB-DL.x265.10bit.HDR.DDP5.1-SMURF 5.09 GB

磁力链接

magnet:?xt=urn:btih:f391b105040bb557f3d1c94a0837c6374ebc52c6

上传的附件:
最新回复 (0)
返回
本站所有资源均收集自互联网,没有提供影片资源存储, 也未参与录制、上传,若本站收录的资源无意侵犯了您的权益, 请联系邮箱:gogoimgs#gmail.com(#[email protected])