[2021] [欧美] [喜剧] [x264-720P] 邻家 Next.Door.2021.GERMAN.720p.BluRay.H264.AAC-VXT 1.14 GB

uump4 1月前

悠悠MP4_MP4电影下载_邻家 Next.Door.2021.GERMAN.720p.BluRay.H264.AAC-VXT 1.14 GB

◎片  名 邻家 Nebenan / 隔壁 / 邻危不乱(台) / Next Door
◎年  代 2021
◎产  地 德国
◎类  别 剧情 / 喜剧
◎语  言 德语 / 西班牙语 / 英语
◎上映日期 2021-06-16(柏林电影节) / 2021-07-15(德国)
◎IMDb评分  6.9/10 from 1454 users
◎IMDb链接  https://www.imdb.com/title/tt11080676/
◎豆瓣评分 6.1/10 from 313 users
◎豆瓣链接 https://movie.douban.com/subject/34844497/
◎片  长 92分钟
◎导  演 丹尼尔·布鲁赫 Daniel Brühl
◎编  剧 丹尼尔·凯尔曼 Daniel Kehlmann
◎主  演 丹尼尔·布鲁赫 Daniel Brühl
       彼得·库尔特 Peter Kurth
       薇姬·克里普斯 Vicky Krieps
        Arne Duppler
       尼尔斯·多格洛 Nils Dörgeloh
       Rike Eckermann Rike Eckermann
       安妮·施瓦茨 Aenne Schwarz

◎简  介

  柏林的普伦茨劳尔贝格区。在这个夏日的尽头,一切都将不再相同。只是丹尼尔还不知道这件事。这个悲剧性情景的主人公是不设防的,因为他已经习惯了成功。他的阁楼公寓很别致,妻子很时尚,保姆也把孩子们管得很好。一切都很顺利,他准备去参加一个超级英雄电影的试镜,在那里有一个超级英雄角色在等着这位著名的德国和西班牙演员。他走进街角的酒吧,发现布鲁诺正坐在那里。分分钟都能看出,布鲁诺等待这一刻已经很久了。这个两德统一的失败者,曾经东柏林士绅化的受害者,永远被忽视的人开始了他的复仇。丹尼尔是他的目标。

◎获奖情况

  第71届柏林国际电影节 (2021)
  金熊奖 最佳影片(提名)
  丹尼尔·布鲁赫



Video
ID           : 1
Format       : AVC
Format/Info      : Advanced Video Codec
Format profile       : [email protected]
Format settings      : CABAC / 4 Ref Frames
Format settings, CABAC       : Yes
Format settings, Reference frames    : 4 frames
Codec ID         : avc1
Codec ID/Info        : Advanced Video Coding
Duration         : 1 h 34 min
Bit rate         : 1 500 kb/s
Width        : 1 280 pixels
Height       : 536 pixels
Display aspect ratio     : 2.40:1
Frame rate mode      : Constant
Frame rate       : 23.976 (23976/1000) FPS
Color space      : YUV
Chroma subsampling       : 4:2:0
Bit depth        : 8 bits
Scan type        : Progressive
Bits/(Pixel*Frame)       : 0.091
Stream size      : 1 013 MiB (87%)
Writing library      : x264 core 152 r2851M ba24899
Encoding settings        : cabac=1 / ref=4 / deblock=1:-1:-1 / analyse=0x3:0x113 / me=umh / subme=9 / psy=1 / psy_rd=1.00:0.15 / mixed_ref=1 / me_range=24 / chroma_me=1 / trellis=2 / 8x8dct=1 / cqm=0 / deadzone=21,11 / fast_pskip=1 / chroma_qp_offset=-3 / threads=16 / lookahead_threads=4 / sliced_threads=0 / nr=0 / decimate=1 / interlaced=0 / bluray_compat=0 / constrained_intra=0 / bframes=3 / b_pyramid=2 / b_adapt=2 / b_bias=0 / direct=3 / weightb=1 / open_gop=0 / weightp=2 / keyint=250 / keyint_min=25 / scenecut=40 / intra_refresh=0 / rc_lookahead=50 / rc=2pass / mbtree=1 / bitrate=1500 / ratetol=1.0 / qcomp=0.60 / qpmin=0 / qpmax=69 / qpstep=4 / cplxblur=20.0 / qblur=0.5 / vbv_maxrate=31250 / vbv_bufsize=31250 / nal_hrd=none / filler=0 / ip_ratio=1.40 / aq=3:1.00
Encoded date         : UTC 2022-08-10 12:23:04
Tagged date      : UTC 2022-08-10 12:23:04
Codec configuration box      : avcC

Audio
ID           : 2
Format       : AAC LC
Format/Info      : Advanced Audio Codec Low Complexity
Codec ID         : mp4a-40-2
Duration         : 1 h 34 min
Bit rate mode        : Constant
Bit rate         : 224 kb/s
Channel(s)       : 6 channels
Channel layout       : C L R Ls Rs LFE
Sampling rate        : 48.0 kHz
Frame rate       : 46.875 FPS (1024 SPF)
Compression mode     : Lossy
Stream size      : 151 MiB (13%)
Language         : German
Default          : Yes
Alternate group      : 1
Encoded date         : UTC 2022-08-10 12:23:04
Tagged date      : UTC 2022-08-10 12:23:04



悠悠MP4_MP4电影下载_邻家 Next.Door.2021.GERMAN.720p.BluRay.H264.AAC-VXT 1.14 GB
悠悠MP4_MP4电影下载_邻家 Next.Door.2021.GERMAN.720p.BluRay.H264.AAC-VXT 1.14 GB
悠悠MP4_MP4电影下载_邻家 Next.Door.2021.GERMAN.720p.BluRay.H264.AAC-VXT 1.14 GB

磁力链接

magnet:?xt=urn:btih:214e7c9f0ccc6b5a30dd67d2fd04371c082ce9b3

上传的附件:
最新回复 (0)
返回
本站所有资源均收集自互联网,没有提供影片资源存储, 也未参与录制、上传,若本站收录的资源无意侵犯了您的权益, 请联系邮箱:gogoimgs#gmail.com(#[email protected])