[更早] [日本] [奇幻] [x264-1080P] 愿睡如梦 To.Sleep.So.as.to.Dream.1986.1080p.BluRay.x264-BiPOLAR 11.34 GB

uump4 1月前

悠悠MP4_MP4电影下载_愿睡如梦 To.Sleep.So.as.to.Dream.1986.1080p.BluRay.x264-BiPOLAR 11.34 GB

◎片  名 愿睡如梦 夢みるように眠りたい / To Sleep so as to Dream
◎年  代 1986
◎产  地 日本
◎类  别 奇幻
◎语  言 日语
◎上映日期 1986-05-18
◎IMDb评分  7.2/10 from 238 users
◎IMDb链接  https://www.imdb.com/title/tt0092274/
◎豆瓣评分 7.9/10 from 172 users
◎豆瓣链接 https://movie.douban.com/subject/1493452/
◎片  长 81分钟
◎导  演 林海象 Kaizo Hayashi
◎编  剧 林海象 Kaizo Hayashi
◎主  演 佐野史郎 Shirô Sano
       深水藤子 Fujiko Fukamizu
       大泉滉 Akira Ôizumi
       县森鱼 Morio Agata
       十贯寺梅轩 Baiken Jukkanji

◎简  介

  昭和初年,私家偵探魚塚被一老婦人委託調查被綁架女兒的下落。偵探追查下去,卻發現事件和一部消失了的電影《永遠的謎》有關,這部電影比號稱日本最早起用女性演員,歸山敎正的《生之光輝》更早有女演員表演,但被警察禁映而消失。鏡頭跟著主角深入淺草的遊樂區,探索默片年代的戲院,解說的辯士、現場配樂的樂隊、放映前的雜耍表演,當年的電影是很「綜合」的娛樂…… 完全和電影業無關的新人導演林海象一鳴驚人的處女作,比《星光夢裏人》早近三十年採用仿默片的拍法,全部黑白攝影,人物對白全部用字幕卡代替,聲軌只有配樂、效果音等,引領觀眾暢遊世紀初的夢工場。



Video
ID           : 1
Format       : AVC
Format/Info      : Advanced Video Codec
Format profile       : [email protected]
Format settings      : CABAC / 5 Ref Frames
Format settings, CABAC       : Yes
Format settings, Reference frames    : 5 frames
Codec ID         : V_MPEG4/ISO/AVC
Duration         : 1 h 23 min
Bit rate         : 18.6 Mb/s
Width        : 1 480 pixels
Height       : 1 080 pixels
Display aspect ratio     : 1.370
Frame rate mode      : Constant
Frame rate       : 23.976 (24000/1001) FPS
Color space      : YUV
Chroma subsampling       : 4:2:0
Bit depth        : 8 bits
Scan type        : Progressive
Bits/(Pixel*Frame)       : 0.486
Stream size      : 10.8 GiB (96%)
Writing library      : x264 core 164 r3095 baee400
Encoding settings        : cabac=1 / ref=5 / deblock=1:-3:-3 / analyse=0x3:0x133 / me=umh / subme=10 / psy=1 / psy_rd=1.00:0.15 / mixed_ref=1 / me_range=24 / chroma_me=1 / trellis=2 / 8x8dct=1 / cqm=0 / deadzone=21,11 / fast_pskip=1 / chroma_qp_offset=-3 / threads=18 / lookahead_threads=3 / sliced_threads=0 / nr=0 / decimate=1 / interlaced=0 / bluray_compat=0 / constrained_intra=0 / bframes=8 / b_pyramid=2 / b_adapt=2 / b_bias=0 / direct=3 / weightb=1 / open_gop=0 / weightp=2 / keyint=250 / keyint_min=23 / scenecut=40 / intra_refresh=0 / rc_lookahead=60 / rc=crf / mbtree=1 / crf=16.5 / qcomp=0.60 / qpmin=0 / qpmax=69 / qpstep=4 / ip_ratio=1.40 / aq=3:0.50
Language         : English
Default          : Yes
Forced       : No
Color range      : Limited
Matrix coefficients      : BT.709

Audio #1
ID           : 2
Format       : FLAC
Format/Info      : Free Lossless Audio Codec
Codec ID         : A_FLAC
Duration         : 1 h 23 min
Bit rate mode        : Variable
Bit rate         : 658 kb/s
Channel(s)       : 1 channel
Channel layout       : C
Sampling rate        : 48.0 kHz
Frame rate       : 11.719 FPS (4096 SPF)
Bit depth        : 24 bits
Compression mode     : Lossless
Stream size      : 392 MiB (3%)
Title        : Japanese
Writing library      : libFLAC 1.2.1 (UTC 2007-09-17)
Language         : Japanese
Default          : Yes
Forced       : No

Audio #2
ID           : 3
Format       : AAC LC
Format/Info      : Advanced Audio Codec Low Complexity
Codec ID         : A_AAC-2
Duration         : 1 h 23 min
Bit rate         : 96.0 kb/s
Channel(s)       : 2 channels
Channel layout       : L R
Sampling rate        : 48.0 kHz
Frame rate       : 46.875 FPS (1024 SPF)
Compression mode     : Lossy
Delay relative to video      : 9 ms
Stream size      : 56.6 MiB (0%)
Title        : Japanese Commentary by Kaizo Hayashi and Shiro Sano
Language         : Japanese
Default          : No
Forced       : No

Audio #3
ID           : 4
Format       : AAC LC
Format/Info      : Advanced Audio Codec Low Complexity
Codec ID         : A_AAC-2
Duration         : 1 h 23 min
Bit rate         : 90.6 kb/s
Channel(s)       : 2 channels
Channel layout       : L R
Sampling rate        : 48.0 kHz
Frame rate       : 46.875 FPS (1024 SPF)
Compression mode     : Lossy
Delay relative to video      : 9 ms
Stream size      : 54.0 MiB (0%)
Title        : English Commentary by Tom Mes and Jasper Sharp
Language         : English
Default          : No
Forced       : No

Text #1
ID           : 5
Format       : UTF-8
Codec ID         : S_TEXT/UTF8
Codec ID/Info        : UTF-8 Plain Text
Duration         : 1 h 20 min
Bit rate         : 16 b/s
Count of elements        : 304
Stream size      : 9.99 KiB (0%)
Title        : English
Language         : English
Default          : Yes
Forced       : Yes

Text #2
ID           : 6
Format       : PGS
Muxing mode      : zlib
Codec ID         : S_HDMV/PGS
Codec ID/Info        : Picture based subtitle format used on BDs/HD-DVDs
Duration         : 1 h 20 min
Bit rate         : 3 101 b/s
Count of elements        : 608
Stream size      : 1.79 MiB (0%)
Title        : English
Language         : English
Default          : No
Forced       : No

Text #3
ID           : 7
Format       : UTF-8
Codec ID         : S_TEXT/UTF8
Codec ID/Info        : UTF-8 Plain Text
Duration         : 1 h 19 min
Bit rate         : 81 b/s
Count of elements        : 1131
Stream size      : 47.5 KiB (0%)
Title        : English Commentary by Kaizo Hayashi and Shiro Sano
Language         : Norwegian
Default          : No
Forced       : No

Text #4
ID           : 8
Format       : PGS
Muxing mode      : zlib
Codec ID         : S_HDMV/PGS
Codec ID/Info        : Picture based subtitle format used on BDs/HD-DVDs
Duration         : 1 h 19 min
Bit rate         : 12.5 kb/s
Count of elements        : 2262
Stream size      : 7.06 MiB (0%)
Title        : English Commentary by Kaizo Hayashi and Shiro Sano
Language         : English
Default          : No
Forced       : No

Menu
00:00:00.000         : en:00:00:00.000
00:07:32.703         : en:00:07:32.703
00:13:38.527         : en:00:13:38.527
00:20:59.009         : en:00:20:59.009
00:26:41.851         : en:00:26:41.851
00:34:16.847         : en:00:34:16.847
00:42:23.542         : en:00:42:23.542
00:49:42.272         : en:00:49:42.272
00:57:09.093         : en:00:57:09.093
01:04:29.241         : en:01:04:29.241
01:09:33.379         : en:01:09:33.379
01:18:08.518         : en:01:18:08.518



Screenshots:
悠悠MP4_MP4电影下载_愿睡如梦 To.Sleep.So.as.to.Dream.1986.1080p.BluRay.x264-BiPOLAR 11.34 GB
To.Sleep.So.as.to.Dream.1986.1080p.BluRay.x264-BiPOLAR

Video...: 1480x1080 18629kb/s @ crf16.5 23.976fps
Audio1..: Japanese 658kb/s 1ch FLAC
Audio2..: Japanese Commentary by Kaizo Hayashi and Shiro Sano 96kb/s 2ch AAC
Audio3..: English Commentary by Tom Mes and Jasper Sharp 91kb/s 2ch AAC
SRT Subs: English regular/commentary
PGS Subs: English regular/commentary
Size....: 11617.07mb (12181390211bytes)
Runtime.: 1h 23mn
IMDb....: https://www.imdb.com/title/tt0092274

Source Bitrate: 35000kb/s

磁力链接

magnet:?xt=urn:btih:0d41bb5967d0ea7e9d5e94cdd713f9c5128613c9

上传的附件:
最新回复 (0)
返回
本站所有资源均收集自互联网,没有提供影片资源存储, 也未参与录制、上传,若本站收录的资源无意侵犯了您的权益, 请联系邮箱:gogoimgs#gmail.com(#[email protected])