[更早] [欧美] [犯罪] [x264-1080P] 同床惊魂 The.Burning.Bed.1984.OAR.1080p.BluRay.x264.FLAC.2.0-HANDJOB 6.59 GB

uump4 6天前

悠悠MP4_MP4电影下载_同床惊魂 The.Burning.Bed.1984.OAR.1080p.BluRay.x264.FLAC.2.0-HANDJOB 6.59 GB

◎片  名 同床惊魂 The Burning Bed
◎年  代 1984
◎产  地 美国
◎类  别 剧情 / 犯罪
◎语  言 英语
◎上映日期 1984-10-08
◎IMDb评分  7.2/10 from 3020 users
◎IMDb链接  https://www.imdb.com/title/tt0087010/
◎豆瓣评分 /10 from 0 users
◎豆瓣链接 https://movie.douban.com/subject/3136418/
◎片  长 95分钟
◎导  演 罗伯特·格林沃德 Robert Greenwald
◎编  剧 Rose Leiman Goldemberg Rose Leiman Goldemberg
        Faith McNulty
◎主  演 Patricia George Patricia George
       费拉·福赛特 Farrah Fawcett
       韦恩·奈特 Wayne Knight
       理查德·马苏尔 Richard Masur
       保罗·勒马特 Paul Le Mat
       Jeffrey Lampert Jeffrey Lampert
       詹姆斯·T.卡拉汉 James T. Callahan
       胡莉汉德·伯克 Hoolihand Burke
       Elizabeth Lyn Fraser Elizabeth Lyn Fraser
       David Friedman David Friedman
       Christa Denton Christa Denton
       Justin Gocke Justin Gocke
       格蕾丝·扎布里斯基 Grace Zabriskie
       Fred D. Scott Fred D. Scott
       Anna Pagan Anna Pagan
       Gilmer McCormick Gilmer McCormick
       加里·格鲁布斯 Gary Grubbs
       詹姆斯·汉普顿 James Hampton
       佩内洛普·米尔福 Penelope Milford

◎简  介

  Farrah Fawcett earned Emmy and Golden Globe nominations for her portrayal of Francine Hughes in the television movie The Burning Bed. The film is structured as a series of flashbacks while Francine's character endures a murder trial after she poured gasoline on her sleeping spouse and burned him to death. Her husband Mickey (Paul Le Mat) drove her over the edge after years of physical and emotional abuse when he rapes her.



Video
ID           : 1
Format       : AVC
Format/Info      : Advanced Video Codec
Format profile       : [email protected]
Format settings      : CABAC / 5 Ref Frames
Format settings, CABAC       : Yes
Format settings, Reference frames    : 5 frames
Codec ID         : V_MPEG4/ISO/AVC
Duration         : 1 h 35 min
Bit rate         : 9 681 kb/s
Width        : 1 444 pixels
Height       : 1 080 pixels
Display aspect ratio     : 4:3
Frame rate mode      : Constant
Frame rate       : 23.976 (24000/1001) FPS
Color space      : YUV
Chroma subsampling       : 4:2:0
Bit depth        : 8 bits
Scan type        : Progressive
Bits/(Pixel*Frame)       : 0.259
Stream size      : 6.48 GiB (98%)
Writing library      : x264 core 148 r2708 86b7198
Encoding settings        : cabac=1 / ref=5 / deblock=1:-3:-3 / analyse=0x3:0x133 / me=umh / subme=10 / psy=1 / psy_rd=1.00:0.00 / mixed_ref=1 / me_range=32 / chroma_me=1 / trellis=2 / 8x8dct=1 / cqm=0 / deadzone=21,11 / fast_pskip=0 / chroma_qp_offset=-2 / threads=18 / lookahead_threads=4 / sliced_threads=0 / nr=0 / decimate=0 / interlaced=0 / bluray_compat=0 / constrained_intra=0 / bframes=16 / b_pyramid=2 / b_adapt=2 / b_bias=0 / direct=3 / weightb=1 / open_gop=0 / weightp=1 / keyint=240 / keyint_min=24 / scenecut=40 / intra_refresh=0 / rc_lookahead=60 / rc=crf / mbtree=0 / crf=23.0 / qcomp=0.60 / qpmin=0 / qpmax=69 / qpstep=4 / vbv_maxrate=62500 / vbv_bufsize=78125 / crf_max=0.0 / nal_hrd=none / filler=0 / ip_ratio=1.40 / pb_ratio=1.30 / aq=2:1.00
Default          : Yes
Forced       : No
Color range      : Limited
Color primaries      : BT.709
Transfer characteristics     : BT.709
Matrix coefficients      : BT.709

Audio
ID           : 2
Format       : AAC LC
Format/Info      : Advanced Audio Codec Low Complexity
Codec ID         : A_AAC-2
Duration         : 1 h 35 min
Bit rate         : 148 kb/s
Channel(s)       : 2 channels
Channel layout       : L R
Sampling rate        : 48.0 kHz
Frame rate       : 46.875 FPS (1024 SPF)
Compression mode     : Lossy
Delay relative to video      : 11 s 0 ms
Stream size      : 102 MiB (2%)
Language         : English
Default          : Yes
Forced       : No

Text #1
ID           : 3
Format       : UTF-8
Codec ID         : S_TEXT/UTF8
Codec ID/Info        : UTF-8 Plain Text
Duration         : 1 h 32 min
Bit rate         : 60 b/s
Frame rate       : 0.214 FPS
Count of elements        : 1189
Stream size      : 40.8 KiB (0%)
Language         : English
Default          : Yes
Forced       : No

Text #2
ID           : 4
Format       : PGS
Muxing mode      : zlib
Codec ID         : S_HDMV/PGS
Codec ID/Info        : Picture based subtitle format used on BDs/HD-DVDs
Duration         : 1 h 32 min
Bit rate         : 30.8 kb/s
Frame rate       : 0.432 FPS
Count of elements        : 2397
Stream size      : 20.4 MiB (0%)
Language         : English
Default          : No
Forced       : No

Menu
00:00:00.000         : :Chapter 1
00:10:58.283         : :Chapter 2
00:19:17.073         : :Chapter 3
00:30:41.089         : :Chapter 4
00:41:32.573         : :Chapter 5
00:57:20.020         : :Chapter 6
01:07:51.651         : :Chapter 7
01:19:30.933         : :Chapter 8



悠悠MP4_MP4电影下载_同床惊魂 The.Burning.Bed.1984.OAR.1080p.BluRay.x264.FLAC.2.0-HANDJOB 6.59 GB
悠悠MP4_MP4电影下载_同床惊魂 The.Burning.Bed.1984.OAR.1080p.BluRay.x264.FLAC.2.0-HANDJOB 6.59 GB
悠悠MP4_MP4电影下载_同床惊魂 The.Burning.Bed.1984.OAR.1080p.BluRay.x264.FLAC.2.0-HANDJOB 6.59 GB

磁力链接

magnet:?xt=urn:btih:eb61c37f80af765abc53d5623ad10de9ca830b87

上传的附件:
最新回复 (0)
返回
本站所有资源均收集自互联网,没有提供影片资源存储, 也未参与录制、上传,若本站收录的资源无意侵犯了您的权益, 请联系邮箱:gogoimgs#gmail.com(#[email protected])