[2014] [欧美] [喜剧] [x264-1080P] 包皮问题 Short.Skin.2014.ITALIAN.1080p.WEBRip.AAC2.0.x264-NOGRP 3.15 GB

uump4 4天前

悠悠MP4_MP4电影下载_包皮问题 Short.Skin.2014.ITALIAN.1080p.WEBRip.AAC2.0.x264-NOGRP 3.15 GB

◎片  名 包皮问题 Short Skin / L'éveil D'Edoardo(法国) / Short Skin - I dolori del giovane Edo (意大利原片名) / Sommer i Toscana(挪威) / Idade à Flor da Pele(葡萄牙)
◎年  代 2014
◎产  地 意大利
◎类  别 剧情 / 喜剧
◎语  言 意大利语
◎上映日期 2014-08-30(威尼斯电影节)
◎IMDb评分  6.5/10 from 644 users
◎IMDb链接  https://www.imdb.com/title/tt3976280/
◎豆瓣评分 6.8/10 from 87 users
◎豆瓣链接 https://movie.douban.com/subject/25970737/
◎片  长 86分钟
◎导  演 Duccio Chiarini Duccio Chiarini
◎编  剧 
◎主  演 

◎简  介

  Ever since he was a child, the seventeen-yearold Edoardo has suffered from a malformation of the foreskin that stops him from masturbating and makes him insecure and ill at ease with girls. Shut up in his sexless microcosm, Edoardo reacts with irritation to the pressures of the outside world, which do nothing but exacerbate his insecurity. No one around him seems to be capable of talking about anything but sex: his friend Arturo, obsessed with the idea of losing his virginity; his parents who urge Edoardo to make overtures to Bianca, the girl next door who has arrived from Milan as she does every year to spend the vacation with her grandmother; even his little sister Olivia, frantically in search of a bitch with which to mate her dog. It will not be the pressures of others that will release Edoardo from his shyness but the close encounter with a girl he meets by chance and an unexpected receptiveness toward him on Bianca’s part. Forced against his will to emerge from the shadows in which he has hidden for years, Edoardo will initially try to solve his problem by clumsy stratagems before finding, at last, the courage to face his own fears.



Video
ID           : 2
Format       : AVC
Format/Info      : Advanced Video Codec
Format profile       : [email protected]
Format settings      : CABAC / 4 Ref Frames
Format settings, CABAC       : Yes
Format settings, Reference frames    : 4 frames
Codec ID         : V_MPEG4/ISO/AVC
Duration         : 1 h 24 min
Bit rate         : 5 179 kb/s
Width        : 1 920 pixels
Height       : 1 036 pixels
Display aspect ratio     : 1.85:1
Frame rate mode      : Constant
Frame rate       : 24.000 FPS
Color space      : YUV
Chroma subsampling       : 4:2:0
Bit depth        : 8 bits
Scan type        : Progressive
Bits/(Pixel*Frame)       : 0.108
Stream size      : 3.05 GiB (97%)
Language         : Italian
Default          : Yes
Forced       : No
Color range      : Limited
Color primaries      : BT.709
Transfer characteristics     : BT.709
Matrix coefficients      : BT.709

Audio
ID           : 1
Format       : AAC LC
Format/Info      : Advanced Audio Codec Low Complexity
Codec ID         : A_AAC-2
Duration         : 1 h 24 min
Bit rate         : 154 kb/s
Channel(s)       : 2 channels
Channel layout       : L R
Sampling rate        : 48.0 kHz
Frame rate       : 46.875 FPS (1024 SPF)
Compression mode     : Lossy
Stream size      : 93.2 MiB (3%)
Language         : Italian
Default          : Yes
Forced       : No

Text
ID           : 3
Format       : UTF-8
Codec ID         : S_TEXT/UTF8
Codec ID/Info        : UTF-8 Plain Text
Duration         : 1 h 17 min
Bit rate         : 50 b/s
Frame rate       : 0.199 FPS
Count of elements        : 925
Stream size      : 28.5 KiB (0%)
Language         : English
Default          : Yes
Forced       : No

Menu
00:00:00.000         : en:1
00:07:47.000         : en:2
00:16:18.000         : en:3
00:25:41.000         : en:4
00:35:30.000         : en:5
00:47:03.000         : en:6
00:57:25.000         : en:7
01:08:08.000         : en:8
01:15:03.000         : en:9
01:19:54.000         : en:10



悠悠MP4_MP4电影下载_包皮问题 Short.Skin.2014.ITALIAN.1080p.WEBRip.AAC2.0.x264-NOGRP 3.15 GB
悠悠MP4_MP4电影下载_包皮问题 Short.Skin.2014.ITALIAN.1080p.WEBRip.AAC2.0.x264-NOGRP 3.15 GB
悠悠MP4_MP4电影下载_包皮问题 Short.Skin.2014.ITALIAN.1080p.WEBRip.AAC2.0.x264-NOGRP 3.15 GB

磁力链接

magnet:?xt=urn:btih:f0c9fc47025e35aea9475e053ff6e84c7667a1b1

上传的附件:
最新回复 (0)
返回
本站所有资源均收集自互联网,没有提供影片资源存储, 也未参与录制、上传,若本站收录的资源无意侵犯了您的权益, 请联系邮箱:gogoimgs#gmail.com(#[email protected])