[更早] [欧美] [其他] [x264-1080P] 烽火双雄 The.Deerslayer.1957.1080p.BluRay.H264.AAC-RARBG 1.18 GB

uump4 4天前

悠悠MP4_MP4电影下载_烽火双雄 The.Deerslayer.1957.1080p.BluRay.H264.AAC-RARBG 1.18 GB

◎片  名 烽火双雄 The Deerslayer
◎年  代 1957
◎产  地 美国
◎类  别 战争 / 西部 / 冒险
◎语  言 英语
◎上映日期 1957
◎IMDb评分  5.4/10 from 342 users
◎IMDb链接  https://www.imdb.com/title/tt0050299/
◎豆瓣评分 /10 from 0 users
◎豆瓣链接 https://movie.douban.com/subject/5061137/
◎片  长 78 分钟
◎导  演 库尔特·纽曼 Kurt Neumann
       库尔特·诺伊曼 Kurt Neumann
◎编  剧 詹姆斯·费尼莫尔·库柏 James Fenimore Cooper
       库尔特·纽曼 Kurt Neumann
       达尔顿·特朗勃 Dalton Trumbo
       Carroll Young Carroll Young
◎主  演 莱克斯·巴克 Lex Barker
       丽塔·莫雷诺 Rita Moreno
       弗罗斯特·塔克 Forrest Tucker
       凯茜·奥唐内 Cathy O'Donnell
       杰伊·C·弗利朋 Jay C. Flippen
       艾迪生·理查兹 Addison Richards
       Phil Schumacher Phil Schumacher
       卡洛斯·里瓦斯 Carlos Rivas
       Carol Henry Carol Henry
       约瑟夫·瓦伊塔尔 Joseph Vitale

◎简  介

  In colonial America, wanderer Deerslayer gets involved with Tom Hutter, a bigoted trapper, and his two contrasting daughters.



Video
ID           : 1
Format       : AVC
Format/Info      : Advanced Video Codec
Format profile       : [email protected]
Format settings      : CABAC / 4 Ref Frames
Format settings, CABAC       : Yes
Format settings, Reference frames    : 4 frames
Codec ID         : avc1
Codec ID/Info        : Advanced Video Coding
Duration         : 1 h 1 min
Bit rate         : 2 500 kb/s
Width        : 1 920 pixels
Height       : 816 pixels
Display aspect ratio     : 2.35:1
Frame rate mode      : Constant
Frame rate       : 24.000 FPS
Color space      : YUV
Chroma subsampling       : 4:2:0
Bit depth        : 8 bits
Scan type        : Progressive
Bits/(Pixel*Frame)       : 0.066
Stream size      : 1.08 GiB (92%)
Writing library      : x264 core 152 r2851M ba24899
Encoding settings        : cabac=1 / ref=4 / deblock=1:-1:-1 / analyse=0x3:0x113 / me=umh / subme=9 / psy=1 / psy_rd=1.00:0.15 / mixed_ref=1 / me_range=24 / chroma_me=1 / trellis=2 / 8x8dct=1 / cqm=0 / deadzone=21,11 / fast_pskip=1 / chroma_qp_offset=-3 / threads=16 / lookahead_threads=4 / sliced_threads=0 / nr=0 / decimate=1 / interlaced=0 / bluray_compat=0 / constrained_intra=0 / bframes=3 / b_pyramid=2 / b_adapt=2 / b_bias=0 / direct=3 / weightb=1 / open_gop=0 / weightp=2 / keyint=250 / keyint_min=25 / scenecut=40 / intra_refresh=0 / rc_lookahead=50 / rc=2pass / mbtree=1 / bitrate=2500 / ratetol=1.0 / qcomp=0.60 / qpmin=0 / qpmax=69 / qpstep=4 / cplxblur=20.0 / qblur=0.5 / vbv_maxrate=31250 / vbv_bufsize=31250 / nal_hrd=none / filler=0 / ip_ratio=1.40 / aq=3:1.00
Encoded date         : UTC 2022-08-06 13:25:54
Tagged date      : UTC 2022-08-06 13:25:54
Codec configuration box      : avcC

Audio
ID           : 2
Format       : AAC LC
Format/Info      : Advanced Audio Codec Low Complexity
Codec ID         : mp4a-40-2
Duration         : 1 h 1 min
Bit rate mode        : Constant
Bit rate         : 224 kb/s
Channel(s)       : 2 channels
Channel layout       : L R
Sampling rate        : 48.0 kHz
Frame rate       : 46.875 FPS (1024 SPF)
Compression mode     : Lossy
Stream size      : 99.0 MiB (8%)
Language         : English
Default          : Yes
Alternate group      : 1
Encoded date         : UTC 2022-08-06 13:25:54
Tagged date      : UTC 2022-08-06 13:25:54



悠悠MP4_MP4电影下载_烽火双雄 The.Deerslayer.1957.1080p.BluRay.H264.AAC-RARBG 1.18 GB
悠悠MP4_MP4电影下载_烽火双雄 The.Deerslayer.1957.1080p.BluRay.H264.AAC-RARBG 1.18 GB
悠悠MP4_MP4电影下载_烽火双雄 The.Deerslayer.1957.1080p.BluRay.H264.AAC-RARBG 1.18 GB

磁力链接

magnet:?xt=urn:btih:b9e3e1be6bdba4fc59678173e041a45c80b91af4

上传的附件:
最新回复 (0)
返回
本站所有资源均收集自互联网,没有提供影片资源存储, 也未参与录制、上传,若本站收录的资源无意侵犯了您的权益, 请联系邮箱:gogoimgs#gmail.com(#[email protected])