[2021] [欧美] [惊悚] [x264-1080P] 蜗牛之家 The.House.of.Snails.2021.SPANISH.1080p.HMAX.WEBRip.DD5.1.x264-playWEB 5.97 GB

uump4 4天前

悠悠MP4_MP4电影下载_蜗牛之家 The.House.of.Snails.2021.SPANISH.1080p.HMAX.WEBRip.DD5.1.x264-playWEB 5.97 GB

◎片  名 蜗牛之家 La casa del caracol / The House of Snails
◎年  代 2021
◎产  地 西班牙 / 墨西哥
◎类  别 惊悚
◎语  言 西班牙语
◎上映日期 2021-06-11(西班牙)
◎IMDb评分  4.9/10 from 466 users
◎IMDb链接  https://www.imdb.com/title/tt12500804/
◎豆瓣评分 /10 from 0 users
◎豆瓣链接 https://movie.douban.com/subject/35391928/
◎片  长 104分钟
◎导  演 马卡雷纳·阿斯托加 Macarena Astorga
◎编  剧 桑德拉·加西亚·涅托 Sandra García Nieto
◎主  演 哈维尔·雷伊 Javier Rey
       帕斯·贝加 Paz Vega
       露娜·馥尔亨西奥 Luna Fulgencio
       赫苏斯·卡罗萨 Jesús Carroza
       比森特·贝尔加拉 Vicente Vergara
       佩德罗·卡萨布兰科 Pedro Casablanc
       埃尔薇拉·明戈斯 Elvira Mínguez
       玛利亚·阿尔方萨·罗索 María Alfonsa Rosso
       费尔南多·特赫罗 Fernando Tejero

◎简  介

  作家安东尼奥决定到马拉加郊外的山上度过夏天并完成他的小说,他需要安静与平和来激发创作灵感。抵达之后,他遇到了美丽的贝塔并逐渐被她吸引,另外还有几个非常奇怪的村民,他开始调查他们的故事并将其融入自己的创作。之后他很快发现当地人隐藏着很多秘密,同时还流传着一个可怕而黑暗的传说,随着他在村子和老宅中度过更多的时间,他也越发感觉现实和小说的界限在不断模糊……



Video
ID           : 1
Format       : AVC
Format/Info      : Advanced Video Codec
Format profile       : [email protected]
Format settings      : CABAC / 4 Ref Frames
Format settings, CABAC       : Yes
Format settings, Reference frames    : 4 frames
Codec ID         : V_MPEG4/ISO/AVC
Duration         : 1 h 39 min
Bit rate mode        : Variable
Bit rate         : 8 250 kb/s
Maximum bit rate     : 12.4 Mb/s
Width        : 1 920 pixels
Height       : 1 080 pixels
Display aspect ratio     : 16:9
Frame rate mode      : Constant
Frame rate       : 25.000 FPS
Color space      : YUV
Chroma subsampling       : 4:2:0
Bit depth        : 8 bits
Scan type        : Progressive
Bits/(Pixel*Frame)       : 0.159
Stream size      : 5.71 GiB (96%)
Writing library      : x264 core 157 r2965 861cec4
Encoding settings        : cabac=1 / ref=4 / deblock=1:0:0 / analyse=0x3:0x113 / me=hex / subme=7 / psy=1 / psy_rd=1.00:0.00 / mixed_ref=1 / me_range=16 / chroma_me=1 / trellis=1 / 8x8dct=1 / cqm=0 / deadzone=21,11 / fast_pskip=1 / chroma_qp_offset=-2 / threads=34 / lookahead_threads=5 / sliced_threads=0 / nr=0 / decimate=1 / interlaced=0 / bluray_compat=0 / constrained_intra=0 / bframes=3 / b_pyramid=2 / b_adapt=1 / b_bias=0 / direct=1 / weightb=1 / open_gop=0 / weightp=2 / keyint=100 / keyint_min=100 / scenecut=40 / intra_refresh=0 / rc_lookahead=40 / rc=2pass / mbtree=1 / bitrate=8250 / ratetol=1.0 / qcomp=0.60 / qpmin=0 / qpmax=69 / qpstep=4 / cplxblur=20.0 / qblur=0.5 / vbv_maxrate=12375 / vbv_bufsize=6187 / nal_hrd=vbr / filler=0 / ip_ratio=1.40 / aq=1:1.00
Default          : Yes
Forced       : No
Color range      : Limited
Color primaries      : BT.709
Transfer characteristics     : BT.709
Matrix coefficients      : BT.709

Audio
ID           : 2
Format       : AC-3
Format/Info      : Audio Coding 3
Commercial name      : Dolby Digital
Codec ID         : A_AC3
Duration         : 1 h 39 min
Bit rate mode        : Constant
Bit rate         : 384 kb/s
Channel(s)       : 6 channels
Channel layout       : L R C LFE Ls Rs
Sampling rate        : 48.0 kHz
Frame rate       : 31.250 FPS (1536 SPF)
Compression mode     : Lossy
Stream size      : 272 MiB (4%)
Title        : Spanish
Language         : Spanish
Service kind         : Complete Main
Default          : Yes
Forced       : No

Text #1
ID           : 3
Format       : UTF-8
Codec ID         : S_TEXT/UTF8
Codec ID/Info        : UTF-8 Plain Text
Duration         : 1 h 33 min
Bit rate         : 43 b/s
Frame rate       : 0.193 FPS
Count of elements        : 1081
Stream size      : 29.7 KiB (0%)
Language         : English
Default          : Yes
Forced       : No

Text #2
ID           : 4
Format       : UTF-8
Codec ID         : S_TEXT/UTF8
Codec ID/Info        : UTF-8 Plain Text
Duration         : 1 h 35 min
Bit rate         : 36 b/s
Frame rate       : 0.148 FPS
Count of elements        : 841
Stream size      : 25.2 KiB (0%)
Language         : Polish
Default          : No
Forced       : No

Text #3
ID           : 5
Format       : UTF-8
Codec ID         : S_TEXT/UTF8
Codec ID/Info        : UTF-8 Plain Text
Duration         : 1 h 33 min
Bit rate         : 40 b/s
Frame rate       : 0.185 FPS
Count of elements        : 1039
Stream size      : 28.1 KiB (0%)
Language         : Hungarian
Default          : No
Forced       : No

Text #4
ID           : 6
Format       : UTF-8
Codec ID         : S_TEXT/UTF8
Codec ID/Info        : UTF-8 Plain Text
Duration         : 1 h 33 min
Bit rate         : 67 b/s
Frame rate       : 0.146 FPS
Count of elements        : 823
Stream size      : 46.3 KiB (0%)
Language         : Bulgarian
Default          : No
Forced       : No

Text #5
ID           : 7
Format       : UTF-8
Codec ID         : S_TEXT/UTF8
Codec ID/Info        : UTF-8 Plain Text
Duration         : 1 h 33 min
Bit rate         : 36 b/s
Frame rate       : 0.175 FPS
Count of elements        : 980
Stream size      : 25.3 KiB (0%)
Language         : Croatian
Default          : No
Forced       : No

Text #6
ID           : 8
Format       : UTF-8
Codec ID         : S_TEXT/UTF8
Codec ID/Info        : UTF-8 Plain Text
Duration         : 1 h 33 min
Bit rate         : 48 b/s
Frame rate       : 0.179 FPS
Count of elements        : 1005
Stream size      : 33.1 KiB (0%)
Language         : Romanian
Default          : No
Forced       : No

Text #7
ID           : 9
Format       : UTF-8
Codec ID         : S_TEXT/UTF8
Codec ID/Info        : UTF-8 Plain Text
Duration         : 1 h 33 min
Bit rate         : 36 b/s
Frame rate       : 0.175 FPS
Count of elements        : 980
Stream size      : 25.2 KiB (0%)
Language         : Serbian
Default          : No
Forced       : No

Text #8
ID           : 10
Format       : UTF-8
Codec ID         : S_TEXT/UTF8
Codec ID/Info        : UTF-8 Plain Text
Duration         : 1 h 33 min
Bit rate         : 45 b/s
Frame rate       : 0.180 FPS
Count of elements        : 1010
Stream size      : 31.2 KiB (0%)
Language         : Czech
Default          : No
Forced       : No

Text #9
ID           : 11
Format       : UTF-8
Codec ID         : S_TEXT/UTF8
Codec ID/Info        : UTF-8 Plain Text
Duration         : 1 h 33 min
Bit rate         : 37 b/s
Frame rate       : 0.175 FPS
Count of elements        : 980
Stream size      : 25.7 KiB (0%)
Language         : Slovenian
Default          : No
Forced       : No

Text #10
ID           : 12
Format       : UTF-8
Codec ID         : S_TEXT/UTF8
Codec ID/Info        : UTF-8 Plain Text
Duration         : 1 h 33 min
Bit rate         : 64 b/s
Frame rate       : 0.175 FPS
Count of elements        : 980
Stream size      : 43.9 KiB (0%)
Language         : Macedonian
Default          : No
Forced       : No



悠悠MP4_MP4电影下载_蜗牛之家 The.House.of.Snails.2021.SPANISH.1080p.HMAX.WEBRip.DD5.1.x264-playWEB 5.97 GB
悠悠MP4_MP4电影下载_蜗牛之家 The.House.of.Snails.2021.SPANISH.1080p.HMAX.WEBRip.DD5.1.x264-playWEB 5.97 GB
悠悠MP4_MP4电影下载_蜗牛之家 The.House.of.Snails.2021.SPANISH.1080p.HMAX.WEBRip.DD5.1.x264-playWEB 5.97 GB

磁力链接

magnet:?xt=urn:btih:3107f9140f7afd1c04963246a621e572cb0a7cb3

上传的附件:
最新回复 (0)
返回
本站所有资源均收集自互联网,没有提供影片资源存储, 也未参与录制、上传,若本站收录的资源无意侵犯了您的权益, 请联系邮箱:gogoimgs#gmail.com(#[email protected])