[更早] [欧美] [爱情] [x264-1080P] 咫尺天涯 Faraway.So.Close.1993.GERMAN.1080p.BluRay.x264.DTS-ADE 15.51 GB

uump4 6天前

悠悠MP4_MP4电影下载_咫尺天涯 Faraway.So.Close.1993.GERMAN.1080p.BluRay.x264.DTS-ADE 15.51 GB

◎片  名 咫尺天涯 In weiter Ferne, so nah! / 如此之近,如此之远 / 这么近,那么远 / Faraway, So Close!
◎年  代 1993
◎产  地 德国
◎类  别 剧情 / 爱情 / 奇幻
◎语  言 德语 / 法语 / 英语
◎上映日期 1993-09-09(德国)
◎IMDb评分  7.2/10 from 8331 users
◎IMDb链接  https://www.imdb.com/title/tt0107209/
◎豆瓣评分 8.0/10 from 2672 users
◎豆瓣链接 https://movie.douban.com/subject/1292863/
◎片  长 146分钟 / 140分钟(美国)
◎导  演 维姆·文德斯 Wim Wenders
◎编  剧 维姆·文德斯 Wim Wenders
◎主  演 奥托·山德尔 Otto Sander
       布鲁诺·冈茨 Bruno Ganz
       娜塔莎·金斯基 Nastassja Kinski
       威廉·达福 Willem Dafoe
       吕迪格·福格勒 Rüdiger Vogler

◎简  介

  天使戴米爾為愛情變成了凡人,與瑪麗亞結婚、生了女兒朵瑞娜、開了一家披薩店與家人過著幸福快樂的日子。                                    
      另一位與戴米爾一起的天使卡西爾這回與一名女天使拉斐爾一起傾聽人類的心聲。卡西爾覺得人類似乎很少思索到生命的本質,每日忙忙碌碌卻不知真正的目的何在?於是卡西爾漸漸升起了想幫助人類的慾望。                                    
      卡西爾看見名叫瑞莎的女孩不小心從高樓墜下,卡西爾大叫,就在瞬間卡西爾正巧救了女孩,但也變成了凡人。但上帝送他的一副盔甲很快就被人以障眼法的騙術 騙走,甚至被警察誤為歹徒而抓入看守所,所幸戴米爾來保釋他。卡西爾第一次嚐到人間美食、咖啡、乾爽的衣服,但沒多久又被引誘喝了白蘭地,於是逐漸陷入自 我麻醉的泥淖中,甚至為了喝酒還以槍搶了小商店。                                    
      卡西爾還記得戰爭時期一名叫安東的小孩隨父親逃到美國,雖然成為走私商人,但還不忘回來找他 失散的姊姊漢娜。卡西爾有心助安東‧貝克爾走回正途,遂藉一次搶劫中認識貝克爾,並在貝克爾被對手帕茲克陷害前救了他。貝克爾為了感激他,遂答應將百分之 五的股權讓給卡西爾,但卡西爾在機場的地下水道中發現貝克爾不只盜拷光碟,甚至走私槍火,於是不接受這份報酬而離去。                                    
      雖然如此,卡西爾還是引 導照顧漢娜長大的克納德帶著漢娜與女兒瑞莎與貝克爾相認,但也暗中請瑪麗亞與特技團的同事以空中飛人的絕技搬走了藏在地下水道的槍械。卡西爾以為他終於完 成幫助人類的心願,但另一名守護天使卻告訴他,整艘船又被歹徒帕茲克攔劫挾持。心焦如焚的卡西爾趕到船塢,以彈跳的方式像天使般躍下,從容地救了瑞莎,但 卡西爾卻在蠅索上遭受帕茲克以槍擊斃。                                    
      事實上卡西爾是接到上帝召回天使的旨意,由他的守護天使拉斐爾迎他回去。戴米爾與雜技團的伙伴制伏了帕茲克三名歹徒後,抱著卡西爾的屍體不勝唏噓。雖然貝克爾終於與姐姐漢娜相認,但人類的事情似乎像永遠潺潺而流的河水一樣永不歇止。

◎获奖情况

  第46届戛纳电影节 (1993)
  主竞赛单元 金棕榈奖(提名)
  维姆·文德斯主竞赛单元 评审团大奖
  维姆·文德斯

  第51届金球奖 (1994)
  电影类 最佳原创歌曲(提名)
  边缘 / 亚当·克莱顿 / 小拉里·穆伦 / 博诺



Video
ID           : 1
Format       : AVC
Format/Info      : Advanced Video Codec
Format profile       : [email protected]
Format settings      : CABAC / 4 Ref Frames
Format settings, CABAC       : Yes
Format settings, Reference frames    : 4 frames
Codec ID         : V_MPEG4/ISO/AVC
Duration         : 2 h 26 min
Bit rate         : 13.6 Mb/s
Width        : 1 920 pixels
Height       : 1 036 pixels
Display aspect ratio     : 1.85:1
Frame rate mode      : Constant
Frame rate       : 23.976 (24000/1001) FPS
Color space      : YUV
Chroma subsampling       : 4:2:0
Bit depth        : 8 bits
Scan type        : Progressive
Bits/(Pixel*Frame)       : 0.286
Stream size      : 13.9 GiB (90%)
Writing library      : x264 core 164 r3075+55M 97d28bb t_mod_New [(8 & 10)[email protected] X86_64]
Encoding settings        : cabac=1 / ref=4 / deblock=1:-3:-3 / analyse=0x3:0x133 / me=umh / subme=11 / psy=1 / fade_compensate=0.00 / psy_rd=1.00:0.00 / mixed_ref=1 / me_range=48 / chroma_me=1 / trellis=2 / 8x8dct=1 / cqm=0 / deadzone=21,11 / fast_pskip=0 / chroma_qp_offset=-3 / threads=32 / lookahead_threads=8 / sliced_threads=0 / nr=0 / decimate=0 / interlaced=0 / bluray_compat=0 / constrained_intra=0 / fgo=0 / bframes=11 / b_pyramid=2 / b_adapt=2 / b_bias=0 / direct=3 / weightb=1 / open_gop=0 / weightp=2 / keyint=240 / keyint_min=1 / scenecut=40 / intra_refresh=0 / rc_lookahead=72 / rc=crf / mbtree=0 / crf=20.0000 / qcomp=0.60 / qpmin=0:0:0 / qpmax=69:69:69 / qpstep=4 / vbv_maxrate=62500 / vbv_bufsize=78125 / crf_max=0.0 / nal_hrd=none / filler=0 / ip_ratio=1.40 / pb_ratio=1.30 / aq=3:0.80 / aq-sensitivity=10.00 / aq-factor=1.00:1.00:1.00 / aq2=0 / aq3=0
Language         : English
Default          : Yes
Forced       : No

Audio
ID           : 2
ID in the original source medium     : 4352 (0x1100)
Format       : DTS
Format/Info      : Digital Theater Systems
Codec ID         : A_DTS
Duration         : 2 h 26 min
Bit rate mode        : Constant
Bit rate         : 1 509 kb/s
Channel(s)       : 6 channels
Channel layout       : C L R Ls Rs LFE
Sampling rate        : 48.0 kHz
Frame rate       : 93.750 FPS (512 SPF)
Bit depth        : 16 bits
Compression mode     : Lossy
Stream size      : 1.54 GiB (10%)
Language         : German
Default          : Yes
Forced       : No
Original source medium       : Blu-ray

Text #1
ID           : 3
Format       : UTF-8
Codec ID         : S_TEXT/UTF8
Codec ID/Info        : UTF-8 Plain Text
Duration         : 2 h 19 min
Bit rate         : 46 b/s
Frame rate       : 0.199 FPS
Count of elements        : 1670
Stream size      : 47.7 KiB (0%)
Language         : English
Default          : Yes
Forced       : No

Text #2
ID           : 4
ID in the original source medium     : 4609 (0x1201)
Format       : PGS
Muxing mode      : zlib
Codec ID         : S_HDMV/PGS
Codec ID/Info        : Picture based subtitle format used on BDs/HD-DVDs
Duration         : 2 h 22 min
Bit rate         : 20.0 kb/s
Frame rate       : 0.259 FPS
Count of elements        : 2217
Stream size      : 20.4 MiB (0%)
Language         : Chinese
Default          : No
Forced       : No
Original source medium       : Blu-ray

Text #3
ID           : 5
ID in the original source medium     : 4610 (0x1202)
Format       : PGS
Muxing mode      : zlib
Codec ID         : S_HDMV/PGS
Codec ID/Info        : Picture based subtitle format used on BDs/HD-DVDs
Duration         : 2 h 22 min
Bit rate         : 20.3 kb/s
Frame rate       : 0.259 FPS
Count of elements        : 2217
Stream size      : 20.7 MiB (0%)
Language         : Chinese
Default          : No
Forced       : No
Original source medium       : Blu-ray

Text #4
ID           : 6
ID in the original source medium     : 4611 (0x1203)
Format       : PGS
Muxing mode      : zlib
Codec ID         : S_HDMV/PGS
Codec ID/Info        : Picture based subtitle format used on BDs/HD-DVDs
Duration         : 2 h 19 min
Bit rate         : 32.5 kb/s
Frame rate       : 0.388 FPS
Count of elements        : 3254
Stream size      : 32.5 MiB (0%)
Language         : English
Default          : No
Forced       : No
Original source medium       : Blu-ray

Text #5
ID           : 7
ID in the original source medium     : 4608 (0x1200)
Format       : PGS
Muxing mode      : zlib
Codec ID         : S_HDMV/PGS
Codec ID/Info        : Picture based subtitle format used on BDs/HD-DVDs
Duration         : 2 h 17 min
Bit rate         : 7 762 b/s
Frame rate       : 0.110 FPS
Count of elements        : 910
Stream size      : 7.63 MiB (0%)
Language         : German
Default          : No
Forced       : No
Original source medium       : Blu-ray

Menu
00:00:00.000         : en:第 01 章
00:04:28.393         : en:第 02 章
00:10:16.699         : en:第 03 章
00:20:13.086         : en:第 04 章
00:28:29.791         : en:第 05 章
00:34:56.761         : en:第 06 章
00:43:31.900         : en:第 07 章
00:58:18.119         : en:第 08 章
01:07:21.495         : en:第 09 章
01:15:29.650         : en:第 10 章
01:24:38.323         : en:第 11 章
01:30:13.449         : en:第 12 章
01:38:57.973         : en:第 13 章
01:44:01.193         : en:第 14 章
01:53:54.369         : en:第 15 章
01:56:55.842         : en:第 16 章
02:02:22.626         : en:第 17 章
02:10:00.793         : en:第 18 章



悠悠MP4_MP4电影下载_咫尺天涯 Faraway.So.Close.1993.GERMAN.1080p.BluRay.x264.DTS-ADE 15.51 GB
悠悠MP4_MP4电影下载_咫尺天涯 Faraway.So.Close.1993.GERMAN.1080p.BluRay.x264.DTS-ADE 15.51 GB
悠悠MP4_MP4电影下载_咫尺天涯 Faraway.So.Close.1993.GERMAN.1080p.BluRay.x264.DTS-ADE 15.51 GB

磁力链接

magnet:?xt=urn:btih:da4fa092a03f9a4d90d3b5673250bd46fb506e24

上传的附件:
最新回复 (0)
返回
本站所有资源均收集自互联网,没有提供影片资源存储, 也未参与录制、上传,若本站收录的资源无意侵犯了您的权益, 请联系邮箱:gogoimgs#gmail.com(#[email protected])