[2021] [欧美] [其他] [BD-Remux] 蜜熊的音乐奇旅 Vivo.2021.1080p.BluRay.REMUX.AVC.DTS-HD.MA.5.1-FGT 24.25 GB

uump4 6天前

悠悠MP4_MP4电影下载_蜜熊的音乐奇旅 Vivo.2021.1080p.BluRay.REMUX.AVC.DTS-HD.MA.5.1-FGT 24.25 GB

◎片  名 蜜熊的音乐奇旅 Vivo / 蜜熊的夏天 / 维沃 / 维沃的精彩生活(台) / 蜜熊仔维沃(港)
◎年  代 2021
◎产  地 美国 / 加拿大
◎类  别 动画 / 音乐 / 冒险
◎语  言 英语
◎上映日期 2021-11-05(中国大陆) / 2021-08-06(美国网络)
◎IMDb评分  6.7/10 from 18352 users
◎IMDb链接  https://www.imdb.com/title/tt6338498/
◎豆瓣评分 6.6/10 from 2850 users
◎豆瓣链接 https://movie.douban.com/subject/26935358/
◎片  长 95分钟
◎导  演 柯克·德·米科 Kirk De Micco
       布兰登·杰佛兹 Brandon Jeffords
◎编  剧 柯克·德·米科 Kirk De Micco
       琦亚拉·艾蕾葛莉亚·休德斯 Quiara Alegria Hudes
       彼得·巴索奇尼 Peter Barsocchini
       林-曼努尔·米兰达 Lin-Manuel Miranda
◎主  演 林-曼努尔·米兰达 Lin-Manuel Miranda
       伊奈拉利·西莫 Ynairaly Simo
       佐伊·索尔达娜 Zoe Saldana
       迈克尔·鲁克 Michael Rooker
       布莱恩·泰里·亨利 Brian Tyree Henry
       胡安·德·马科斯·冈萨雷斯 Juan de Marcos González
       葛洛丽亚·伊斯特芬 Gloria Estefan
       妮可·拜尔 Nicole Byer
       凯蒂·洛斯 Katie Lowes
       奥利维亚·特鲁希略 Olivia Trujillo
       莉娅·朱厄特 Lidya Jewett
       莱斯利·大卫·贝克 Leslie David Baker
       帕洛玛·莫拉莱斯 Paloma Morales
       丹尼·皮诺 Danny Pino
       瑞奇·摩尔 Rich Moore
       苔丝·圣地亚哥 Tessie Santiago
       Paolo Andino Paolo Andino
       Omar Avila Omar Avila
       卡特罗·科尔伯特 Catero Colbert
       艾琳·加林多 Eileen Galindo
       Michelle Jubilee Gonzalez Michelle Jubilee Gonzalez
       杰森·格里菲斯 Jason Griffith
       布里奇特·霍夫曼 Bridget Hoffman
       斯科特·门维尔 Scott Menville
       大卫·米驰 David Michie
       乔纳森·尼科尔斯 Jonathan Nichols
       杰奎琳·皮诺尔 Jacqueline Pinol
       兰迪·汤姆 Randy Thom
       谢尔碧·杨 Shelby Young

◎简  介

  影片讲述了一个欢乐又温暖的故事。为了完成爷爷安德烈的遗愿,嘻哈搭档蜜熊维沃(林-曼努尔·米兰达 配音)与酷女孩加比(伊奈拉利·西莫 配音)化身“爱的信使”踏上了一段奇妙冒险旅途。然而,一路上囧况不断,欢乐与惊险并存,他们能完成任务吗?

◎获奖情况

  第49届动画安妮奖 (2022)
  最佳配乐(提名)
  最佳制作(提名)
  最佳分镜(提名)
  最佳角色设计(提名)
  最佳动画效果(提名)



Video
ID           : 1
ID in the original source medium     : 4113 (0x1011)
Format       : AVC
Format/Info      : Advanced Video Codec
Format profile       : [email protected]
Format settings      : CABAC / 2 Ref Frames
Format settings, CABAC       : Yes
Format settings, Reference frames    : 2 frames
Format settings, GOP     : M=1, N=10
Codec ID         : V_MPEG4/ISO/AVC
Duration         : 1 h 35 min
Bit rate mode        : Variable
Bit rate         : 27.8 Mb/s
Width        : 1 920 pixels
Height       : 1 080 pixels
Display aspect ratio     : 16:9
Frame rate mode      : Constant
Frame rate       : 23.976 (24000/1001) FPS
Color space      : YUV
Chroma subsampling       : 4:2:0
Bit depth        : 8 bits
Scan type        : Progressive
Bits/(Pixel*Frame)       : 0.560
Stream size      : 18.6 GiB (77%)
Language         : English
Default          : No
Forced       : No
Original source medium       : Blu-ray

Audio #1
ID           : 2
ID in the original source medium     : 4352 (0x1100)
Format       : DTS XLL
Format/Info      : Digital Theater Systems
Commercial name      : DTS-HD Master Audio
Codec ID         : A_DTS
Duration         : 1 h 35 min
Bit rate mode        : Variable
Bit rate         : 2 336 kb/s
Channel(s)       : 6 channels
Channel layout       : C L R Ls Rs LFE
Sampling rate        : 48.0 kHz
Frame rate       : 93.750 FPS (512 SPF)
Bit depth        : 16 bits
Compression mode     : Lossless
Stream size      : 1.56 GiB (6%)
Title        : DTS-HD MA 5.1
Language         : English
Default          : Yes
Forced       : No
Original source medium       : Blu-ray

Audio #2
ID           : 3
ID in the original source medium     : 4353 (0x1101)
Format       : AC-3
Format/Info      : Audio Coding 3
Commercial name      : Dolby Digital
Codec ID         : A_AC3
Duration         : 1 h 35 min
Bit rate mode        : Constant
Bit rate         : 640 kb/s
Channel(s)       : 6 channels
Channel layout       : L R C LFE Ls Rs
Sampling rate        : 48.0 kHz
Frame rate       : 31.250 FPS (1536 SPF)
Compression mode     : Lossy
Stream size      : 438 MiB (2%)
Title        : DD 5.1
Language         : English
Service kind         : Complete Main
Default          : No
Forced       : No
Original source medium       : Blu-ray

Audio #3
ID           : 4
ID in the original source medium     : 4354 (0x1102)
Format       : DTS XLL
Format/Info      : Digital Theater Systems
Commercial name      : DTS-HD Master Audio
Codec ID         : A_DTS
Duration         : 1 h 35 min
Bit rate mode        : Variable
Bit rate         : 2 304 kb/s
Channel(s)       : 6 channels
Channel layout       : C L R Ls Rs LFE
Sampling rate        : 48.0 kHz
Frame rate       : 93.750 FPS (512 SPF)
Bit depth        : 16 bits
Compression mode     : Lossless
Stream size      : 1.54 GiB (6%)
Title        : DTS-HD MA 5.1
Language         : French
Default          : No
Forced       : No
Original source medium       : Blu-ray

Audio #4
ID           : 5
ID in the original source medium     : 4355 (0x1103)
Format       : DTS XLL
Format/Info      : Digital Theater Systems
Commercial name      : DTS-HD Master Audio
Codec ID         : A_DTS
Duration         : 1 h 35 min
Bit rate mode        : Variable
Bit rate         : 2 312 kb/s
Channel(s)       : 6 channels
Channel layout       : C L R Ls Rs LFE
Sampling rate        : 48.0 kHz
Frame rate       : 93.750 FPS (512 SPF)
Bit depth        : 16 bits
Compression mode     : Lossless
Stream size      : 1.54 GiB (6%)
Title        : DTS-HD MA 5.1
Language         : Portuguese
Default          : No
Forced       : No
Original source medium       : Blu-ray

Audio #5
ID           : 6
ID in the original source medium     : 4356 (0x1104)
Format       : AC-3
Format/Info      : Audio Coding 3
Commercial name      : Dolby Digital
Codec ID         : A_AC3
Duration         : 1 h 35 min
Bit rate mode        : Constant
Bit rate         : 640 kb/s
Channel(s)       : 6 channels
Channel layout       : L R C LFE Ls Rs
Sampling rate        : 48.0 kHz
Frame rate       : 31.250 FPS (1536 SPF)
Compression mode     : Lossy
Stream size      : 438 MiB (2%)
Title        : DD 5.1
Language         : Spanish
Service kind         : Complete Main
Default          : No
Forced       : No
Original source medium       : Blu-ray

Text #1
ID           : 7
Format       : UTF-8
Codec ID         : S_TEXT/UTF8
Codec ID/Info        : UTF-8 Plain Text
Duration         : 1 h 28 min
Bit rate         : 74 b/s
Frame rate       : 0.277 FPS
Count of elements        : 1472
Stream size      : 48.1 KiB (0%)
Language         : English
Default          : Yes
Forced       : No

Text #2
ID           : 8
Format       : UTF-8
Codec ID         : S_TEXT/UTF8
Codec ID/Info        : UTF-8 Plain Text
Duration         : 1 h 32 min
Bit rate         : 81 b/s
Frame rate       : 0.316 FPS
Count of elements        : 1754
Stream size      : 54.9 KiB (0%)
Title        : SDH
Language         : English
Default          : No
Forced       : No

Text #3
ID           : 9
ID in the original source medium     : 4609 (0x1201)
Format       : PGS
Muxing mode      : zlib
Codec ID         : S_HDMV/PGS
Codec ID/Info        : Picture based subtitle format used on BDs/HD-DVDs
Duration         : 1 h 24 min
Bit rate         : 39.5 kb/s
Frame rate       : 0.530 FPS
Count of elements        : 2688
Stream size      : 23.9 MiB (0%)
Language         : English
Default          : No
Forced       : No
Original source medium       : Blu-ray

Text #4
ID           : 10
ID in the original source medium     : 4608 (0x1200)
Format       : PGS
Muxing mode      : zlib
Codec ID         : S_HDMV/PGS
Codec ID/Info        : Picture based subtitle format used on BDs/HD-DVDs
Duration         : 1 h 32 min
Bit rate         : 48.2 kb/s
Frame rate       : 0.637 FPS
Count of elements        : 3532
Stream size      : 31.8 MiB (0%)
Title        : SDH
Language         : English
Default          : No
Forced       : No
Original source medium       : Blu-ray

Text #5
ID           : 11
ID in the original source medium     : 4610 (0x1202)
Format       : PGS
Muxing mode      : zlib
Codec ID         : S_HDMV/PGS
Codec ID/Info        : Picture based subtitle format used on BDs/HD-DVDs
Duration         : 1 h 33 min
Bit rate         : 32.1 kb/s
Frame rate       : 0.491 FPS
Count of elements        : 2766
Stream size      : 21.6 MiB (0%)
Language         : Chinese
Default          : No
Forced       : No
Original source medium       : Blu-ray

Text #6
ID           : 12
ID in the original source medium     : 4611 (0x1203)
Format       : PGS
Muxing mode      : zlib
Codec ID         : S_HDMV/PGS
Codec ID/Info        : Picture based subtitle format used on BDs/HD-DVDs
Duration         : 1 h 33 min
Bit rate         : 32.3 kb/s
Frame rate       : 0.491 FPS
Count of elements        : 2766
Stream size      : 21.7 MiB (0%)
Language         : Chinese
Default          : No
Forced       : No
Original source medium       : Blu-ray

Text #7
ID           : 13
ID in the original source medium     : 4612 (0x1204)
Format       : PGS
Muxing mode      : zlib
Codec ID         : S_HDMV/PGS
Codec ID/Info        : Picture based subtitle format used on BDs/HD-DVDs
Duration         : 1 h 33 min
Bit rate         : 31.6 kb/s
Frame rate       : 0.481 FPS
Count of elements        : 2714
Stream size      : 21.2 MiB (0%)
Language         : French
Default          : No
Forced       : No
Original source medium       : Blu-ray

Text #8
ID           : 14
ID in the original source medium     : 4612 (0x1204)
Format       : PGS
Muxing mode      : zlib
Codec ID         : S_HDMV/PGS
Codec ID/Info        : Picture based subtitle format used on BDs/HD-DVDs
Duration         : 1 h 24 min
Bit rate         : 444 b/s
Frame rate       : 0.008 FPS
Count of elements        : 38
Stream size      : 275 KiB (0%)
Language         : French
Default          : No
Forced       : No
Original source medium       : Blu-ray

Text #9
ID           : 15
ID in the original source medium     : 4613 (0x1205)
Format       : PGS
Muxing mode      : zlib
Codec ID         : S_HDMV/PGS
Codec ID/Info        : Picture based subtitle format used on BDs/HD-DVDs
Duration         : 1 h 34 min
Bit rate         : 27.5 kb/s
Frame rate       : 0.454 FPS
Count of elements        : 2564
Stream size      : 18.5 MiB (0%)
Language         : Korean
Default          : No
Forced       : No
Original source medium       : Blu-ray

Text #10
ID           : 16
ID in the original source medium     : 4614 (0x1206)
Format       : PGS
Muxing mode      : zlib
Codec ID         : S_HDMV/PGS
Codec ID/Info        : Picture based subtitle format used on BDs/HD-DVDs
Duration         : 1 h 34 min
Bit rate         : 37.3 kb/s
Frame rate       : 0.482 FPS
Count of elements        : 2720
Stream size      : 25.1 MiB (0%)
Language         : Portuguese
Default          : No
Forced       : No
Original source medium       : Blu-ray

Text #11
ID           : 17
ID in the original source medium     : 4614 (0x1206)
Format       : PGS
Muxing mode      : zlib
Codec ID         : S_HDMV/PGS
Codec ID/Info        : Picture based subtitle format used on BDs/HD-DVDs
Duration         : 1 h 34 min
Bit rate         : 469 b/s
Frame rate       : 0.007 FPS
Count of elements        : 38
Stream size      : 324 KiB (0%)
Language         : Portuguese
Default          : No
Forced       : No
Original source medium       : Blu-ray

Text #12
ID           : 18
ID in the original source medium     : 4615 (0x1207)
Format       : PGS
Muxing mode      : zlib
Codec ID         : S_HDMV/PGS
Codec ID/Info        : Picture based subtitle format used on BDs/HD-DVDs
Duration         : 1 h 33 min
Bit rate         : 38.3 kb/s
Frame rate       : 0.484 FPS
Count of elements        : 2728
Stream size      : 25.7 MiB (0%)
Language         : Spanish
Default          : No
Forced       : No
Original source medium       : Blu-ray

Text #13
ID           : 19
ID in the original source medium     : 4615 (0x1207)
Format       : PGS
Muxing mode      : zlib
Codec ID         : S_HDMV/PGS
Codec ID/Info        : Picture based subtitle format used on BDs/HD-DVDs
Duration         : 1 h 22 min
Bit rate         : 610 b/s
Frame rate       : 0.008 FPS
Count of elements        : 42
Stream size      : 370 KiB (0%)
Language         : Spanish
Default          : No
Forced       : No
Original source medium       : Blu-ray

Text #14
ID           : 20
ID in the original source medium     : 4616 (0x1208)
Format       : PGS
Muxing mode      : zlib
Codec ID         : S_HDMV/PGS
Codec ID/Info        : Picture based subtitle format used on BDs/HD-DVDs
Duration         : 1 h 33 min
Bit rate         : 35.9 kb/s
Frame rate       : 0.491 FPS
Count of elements        : 2766
Stream size      : 24.1 MiB (0%)
Language         : Thai
Default          : No
Forced       : No
Original source medium       : Blu-ray

Text #15
ID           : 21
ID in the original source medium     : 4618 (0x120A)
Format       : PGS
Muxing mode      : zlib
Codec ID         : S_HDMV/PGS
Codec ID/Info        : Picture based subtitle format used on BDs/HD-DVDs
Duration         : 1 h 24 min
Bit rate         : 14.6 kb/s
Frame rate       : 0.201 FPS
Count of elements        : 1018
Stream size      : 8.85 MiB (0%)
Title        : FORCED
Language         : French
Default          : No
Forced       : No
Original source medium       : Blu-ray

Text #16
ID           : 22
ID in the original source medium     : 4619 (0x120B)
Format       : PGS
Muxing mode      : zlib
Codec ID         : S_HDMV/PGS
Codec ID/Info        : Picture based subtitle format used on BDs/HD-DVDs
Duration         : 1 h 24 min
Bit rate         : 12.6 kb/s
Frame rate       : 0.147 FPS
Count of elements        : 746
Stream size      : 7.63 MiB (0%)
Title        : FORCED
Language         : Portuguese
Default          : No
Forced       : No
Original source medium       : Blu-ray

Text #17
ID           : 23
ID in the original source medium     : 4620 (0x120C)
Format       : PGS
Muxing mode      : zlib
Codec ID         : S_HDMV/PGS
Codec ID/Info        : Picture based subtitle format used on BDs/HD-DVDs
Duration         : 1 h 24 min
Bit rate         : 12.7 kb/s
Frame rate       : 0.142 FPS
Count of elements        : 722
Stream size      : 7.69 MiB (0%)
Title        : FORCED
Language         : Spanish
Default          : No
Forced       : No
Original source medium       : Blu-ray

Menu
00:00:00.000         : en:Chapter 01
00:05:41.215         : en:Chapter 02
00:08:36.807         : en:Chapter 03
00:13:42.112         : en:Chapter 04
00:18:20.557         : en:Chapter 05
00:23:15.310         : en:Chapter 06
00:28:14.609         : en:Chapter 07
00:35:13.027         : en:Chapter 08
00:40:35.683         : en:Chapter 09
00:44:55.776         : en:Chapter 10
00:50:09.423         : en:Chapter 11
00:55:39.252         : en:Chapter 12
01:01:31.062         : en:Chapter 13
01:06:13.636         : en:Chapter 14
01:10:50.746         : en:Chapter 15
01:17:17.591         : en:Chapter 16



悠悠MP4_MP4电影下载_蜜熊的音乐奇旅 Vivo.2021.1080p.BluRay.REMUX.AVC.DTS-HD.MA.5.1-FGT 24.25 GB
悠悠MP4_MP4电影下载_蜜熊的音乐奇旅 Vivo.2021.1080p.BluRay.REMUX.AVC.DTS-HD.MA.5.1-FGT 24.25 GB
悠悠MP4_MP4电影下载_蜜熊的音乐奇旅 Vivo.2021.1080p.BluRay.REMUX.AVC.DTS-HD.MA.5.1-FGT 24.25 GB

磁力链接

magnet:?xt=urn:btih:15d0da036d3e9fde9e7caa2281cad7067fd50877

上传的附件:
最新回复 (0)
返回
本站所有资源均收集自互联网,没有提供影片资源存储, 也未参与录制、上传,若本站收录的资源无意侵犯了您的权益, 请联系邮箱:gogoimgs#gmail.com(#[email protected])