[2022] [欧美] [科幻] [BD-Remux] 侏罗纪世界3 Jurassic.World.Dominion.2022.EXTENDED.1080p.BluRay.REMUX.AVC.DTS-X.7.1-FGT 34.19 GB

uump4 6天前

悠悠MP4_MP4电影下载_侏罗纪世界3 Jurassic.World.Dominion.2022.EXTENDED.1080p.BluRay.REMUX.AVC.DTS-X.7.1-FGT 34.19 GB

◎片  名 侏罗纪世界3 Jurassic World: Dominion / 侏罗纪世界3:统治 / 侏罗纪世界:统治霸权(港) / 侏罗纪世界:统霸天下(台) / 侏罗纪公园6 / Jurassic Park 6
◎年  代 2022
◎产  地 美国 / 马耳他
◎类  别 动作 / 科幻 / 冒险
◎语  言 英语
◎上映日期 2022-06-10(美国/中国大陆) / 2022-06-01(韩国)
◎IMDb评分  5.7/10 from 107961 users
◎IMDb链接  https://www.imdb.com/title/tt8041270/
◎豆瓣评分 6.1/10 from 191923 users
◎豆瓣链接 https://movie.douban.com/subject/26873582/
◎片  长 146分钟 / 147分钟(中国大陆)
◎导  演 科林·特莱沃若 Colin Trevorrow
◎编  剧 艾米丽·卡迈克尔 Emily Carmichael
       科林·特莱沃若 Colin Trevorrow
       德里克·康纳利 Derek Connolly
       迈克尔·克莱顿 Michael Crichton
◎主  演 克里斯·帕拉特 Chris Pratt
       布莱丝·达拉斯·霍华德 Bryce Dallas Howard
       劳拉·邓恩 Laura Dern
       山姆·尼尔 Sam Neill
       杰夫·高布伦 Jeff Goldblum
       德汪达·怀斯 DeWanda Wise
       马莫多·阿西 Mamoudou Athie
       伊莎贝拉·瑟蒙 Isabella Sermon
       坎贝尔·斯科特 Campbell Scott
       黄荣亮 B.D. Wong
       奥玛·希 Omar Sy
       贾斯蒂斯·史密斯 Justice Smith
       丹妮艾拉·皮内达 Daniella Pineda
       斯科特·黑兹 Scott Haze
       迪辰·拉克曼 Dichen Lachman
       克里斯托弗·普拉哈 Kristoffer Polaha
       芙蕾雅·帕克 Freya Parker
       亚历山大·欧文 Alexander Owen
       埃尔娃·崔尔 Elva Trill
       特蕾莎·森登·加西亚 Teresa Cendon-Garcia
       瓦拉达·塞图 Varada Sethu
       本·阿什登 Ben Ashenden
       小恩佐·斯奎利诺 Enzo Squillino Jr.
       格利尼斯·戴维斯 Glynis Davies
       摩西·布林斯·普兰提 Moses Brings Plenty
       柯基·法尔考 Cokey Falkow
       迪米特里“维加斯”蒂瓦约 Dimitri 'Vegas' Thivaios
       乔·阿佐帕迪 Joe Azzopardi
       本·库克 Ben Cooke
       伯纳多·桑托斯 Bernardo Santos

◎简  介

  影片为《侏罗纪世界》系列的完结篇,故事的开篇设定在纳布拉尔岛被摧毁的四年后。如今,恐龙在世界各地与人类共同生活、共同捕猎。这一脆弱的平衡将重塑未来,并最终决定人类能否与史上最可怕生物共享这颗星球,并继续站在食物链的顶端。



Video
ID           : 1
ID in the original source medium     : 4113 (0x1011)
Format       : AVC
Format/Info      : Advanced Video Codec
Format profile       : [email protected]
Format settings      : CABAC / 2 Ref Frames
Format settings, CABAC       : Yes
Format settings, Reference frames    : 2 frames
Format settings, GOP     : M=1, N=10
Codec ID         : V_MPEG4/ISO/AVC
Duration         : 2 h 40 min
Bit rate mode        : Variable
Bit rate         : 22.8 Mb/s
Width        : 1 920 pixels
Height       : 1 080 pixels
Display aspect ratio     : 16:9
Frame rate mode      : Constant
Frame rate       : 23.976 (24000/1001) FPS
Color space      : YUV
Chroma subsampling       : 4:2:0
Bit depth        : 8 bits
Scan type        : Progressive
Bits/(Pixel*Frame)       : 0.459
Stream size      : 25.6 GiB (75%)
Language         : English
Default          : No
Forced       : No
Original source medium       : Blu-ray

Audio #1
ID           : 2
ID in the original source medium     : 4352 (0x1100)
Format       : DTS XLL X
Format/Info      : Digital Theater Systems
Commercial name      : DTS-HD Master Audio
Codec ID         : A_DTS
Duration         : 2 h 40 min
Bit rate mode        : Variable
Bit rate         : 3 301 kb/s
Channel(s)       : 8 channels
Channel(s)_Original      : Object Based
ChannelLayout_Original       : Object Based
Sampling rate        : 48.0 kHz
Frame rate       : 93.750 FPS (512 SPF)
Bit depth        : 24 bits
Stream size      : 3.70 GiB (11%)
Title        : DTS-X 7.1
Language         : English
Default          : Yes
Forced       : No
Original source medium       : Blu-ray

Audio #2
ID           : 3
ID in the original source medium     : 4353 (0x1101)
Format       : DTS XBR
Format/Info      : Digital Theater Systems
Commercial name      : DTS-HD High Resolution Audio
Codec ID         : A_DTS
Duration         : 2 h 40 min
Bit rate mode        : Constant
Bit rate         : 2 046 kb/s
Channel(s)       : 8 channels
Channel layout       : C L R LFE Lb Rb Lss Rss
Sampling rate        : 48.0 kHz
Frame rate       : 93.750 FPS (512 SPF)
Bit depth        : 24 bits
Compression mode     : Lossy
Stream size      : 2.30 GiB (7%)
Title        : DTS-HR 7.1
Language         : Spanish
Default          : No
Forced       : No
Original source medium       : Blu-ray

Audio #3
ID           : 4
ID in the original source medium     : 4354 (0x1102)
Format       : DTS XBR
Format/Info      : Digital Theater Systems
Commercial name      : DTS-HD High Resolution Audio
Codec ID         : A_DTS
Duration         : 2 h 40 min
Bit rate mode        : Constant
Bit rate         : 2 046 kb/s
Channel(s)       : 8 channels
Channel layout       : C L R LFE Lb Rb Lss Rss
Sampling rate        : 48.0 kHz
Frame rate       : 93.750 FPS (512 SPF)
Bit depth        : 24 bits
Compression mode     : Lossy
Stream size      : 2.30 GiB (7%)
Title        : DTS-HR 7.1
Language         : French
Default          : No
Forced       : No
Original source medium       : Blu-ray

Audio #4
ID           : 5
ID in the original source medium     : 4356 (0x1104)
Format       : AC-3
Format/Info      : Audio Coding 3
Commercial name      : Dolby Digital
Codec ID         : A_AC3
Duration         : 2 h 40 min
Bit rate mode        : Constant
Bit rate         : 192 kb/s
Channel(s)       : 2 channels
Channel layout       : L R
Sampling rate        : 48.0 kHz
Frame rate       : 31.250 FPS (1536 SPF)
Compression mode     : Lossy
Stream size      : 221 MiB (1%)
Title        : DD 2.0
Language         : English
Service kind         : Complete Main
Default          : No
Forced       : No
Original source medium       : Blu-ray

Text #1
ID           : 6
Format       : UTF-8
Codec ID         : S_TEXT/UTF8
Codec ID/Info        : UTF-8 Plain Text
Duration         : 2 h 25 min
Bit rate         : 48 b/s
Frame rate       : 0.192 FPS
Count of elements        : 1668
Stream size      : 51.9 KiB (0%)
Language         : English
Default          : Yes
Forced       : No

Text #2
ID           : 7
Format       : UTF-8
Codec ID         : S_TEXT/UTF8
Codec ID/Info        : UTF-8 Plain Text
Duration         : 2 h 28 min
Bit rate         : 55 b/s
Frame rate       : 0.226 FPS
Count of elements        : 2019
Stream size      : 60.6 KiB (0%)
Title        : SDH
Language         : English
Default          : No
Forced       : No

Text #3
ID           : 8
ID in the original source medium     : 4608 (0x1200)
Format       : PGS
Muxing mode      : zlib
Codec ID         : S_HDMV/PGS
Codec ID/Info        : Picture based subtitle format used on BDs/HD-DVDs
Duration         : 2 h 37 min
Bit rate         : 36.8 kb/s
Frame rate       : 0.431 FPS
Count of elements        : 4074
Stream size      : 41.5 MiB (0%)
Language         : English
Default          : No
Forced       : No
Original source medium       : Blu-ray

Text #4
ID           : 9
ID in the original source medium     : 4609 (0x1201)
Format       : PGS
Muxing mode      : zlib
Codec ID         : S_HDMV/PGS
Codec ID/Info        : Picture based subtitle format used on BDs/HD-DVDs
Duration         : 2 h 36 min
Bit rate         : 31.1 kb/s
Frame rate       : 0.364 FPS
Count of elements        : 3424
Stream size      : 34.9 MiB (0%)
Language         : Spanish
Default          : No
Forced       : No
Original source medium       : Blu-ray

Text #5
ID           : 10
ID in the original source medium     : 4610 (0x1202)
Format       : PGS
Muxing mode      : zlib
Codec ID         : S_HDMV/PGS
Codec ID/Info        : Picture based subtitle format used on BDs/HD-DVDs
Duration         : 2 h 36 min
Bit rate         : 32.7 kb/s
Frame rate       : 0.362 FPS
Count of elements        : 3404
Stream size      : 36.6 MiB (0%)
Language         : French
Default          : No
Forced       : No
Original source medium       : Blu-ray

Text #6
ID           : 11
ID in the original source medium     : 4611 (0x1203)
Format       : PGS
Muxing mode      : zlib
Codec ID         : S_HDMV/PGS
Codec ID/Info        : Picture based subtitle format used on BDs/HD-DVDs
Duration         : 2 h 36 min
Bit rate         : 1 272 b/s
Frame rate       : 0.014 FPS
Count of elements        : 134
Stream size      : 1.43 MiB (0%)
Title        : FORCED
Language         : Spanish
Default          : No
Forced       : No
Original source medium       : Blu-ray

Text #7
ID           : 12
ID in the original source medium     : 4612 (0x1204)
Format       : PGS
Muxing mode      : zlib
Codec ID         : S_HDMV/PGS
Codec ID/Info        : Picture based subtitle format used on BDs/HD-DVDs
Duration         : 2 h 36 min
Bit rate         : 1 194 b/s
Frame rate       : 0.015 FPS
Count of elements        : 140
Stream size      : 1.34 MiB (0%)
Title        : FORCED
Language         : French
Default          : No
Forced       : No
Original source medium       : Blu-ray

Menu
00:00:00.000         : en:Chapter 01
00:07:57.560         : en:Chapter 02
00:11:36.362         : en:Chapter 03
00:25:30.070         : en:Chapter 04
00:35:48.062         : en:Chapter 05
00:42:56.240         : en:Chapter 06
00:47:53.787         : en:Chapter 07
00:54:45.240         : en:Chapter 08
01:04:50.845         : en:Chapter 09
01:14:49.026         : en:Chapter 10
01:25:28.373         : en:Chapter 11
01:30:44.355         : en:Chapter 12
01:38:17.975         : en:Chapter 13
01:44:28.345         : en:Chapter 14
01:48:09.483         : en:Chapter 15
02:04:34.425         : en:Chapter 16
02:08:56.895         : en:Chapter 17
02:14:12.961         : en:Chapter 18
02:23:16.754         : en:Chapter 19
02:29:59.448         : en:Chapter 20



悠悠MP4_MP4电影下载_侏罗纪世界3 Jurassic.World.Dominion.2022.EXTENDED.1080p.BluRay.REMUX.AVC.DTS-X.7.1-FGT 34.19 GB
悠悠MP4_MP4电影下载_侏罗纪世界3 Jurassic.World.Dominion.2022.EXTENDED.1080p.BluRay.REMUX.AVC.DTS-X.7.1-FGT 34.19 GB
悠悠MP4_MP4电影下载_侏罗纪世界3 Jurassic.World.Dominion.2022.EXTENDED.1080p.BluRay.REMUX.AVC.DTS-X.7.1-FGT 34.19 GB

磁力链接

magnet:?xt=urn:btih:3560eaca446a8bcd57fe2914e2ed271ead65744f

上传的附件:
最新回复 (0)
返回
本站所有资源均收集自互联网,没有提供影片资源存储, 也未参与录制、上传,若本站收录的资源无意侵犯了您的权益, 请联系邮箱:gogoimgs#gmail.com(#[email protected])