[2022] [欧美] [惊悚] [BD-Remux] 致命困境 Hot.Seat.2022.1080p.BluRay.REMUX.AVC.DTS-HD.MA.5.1-FGT 20.11 GB

uump4 6天前

悠悠MP4_MP4电影下载_致命困境 Hot.Seat.2022.1080p.BluRay.REMUX.AVC.DTS-HD.MA.5.1-FGT 20.11 GB

◎片  名 致命困境 Hot Seat / 破局 / 炸弹陷阱
◎年  代 2022
◎产  地 美国
◎类  别 惊悚
◎语  言 英语
◎上映日期 2022-07-01(美国)
◎IMDb评分  4.6/10 from 1612 users
◎IMDb链接  https://www.imdb.com/title/tt15690300/
◎豆瓣评分 /10 from 0 users
◎豆瓣链接 https://movie.douban.com/subject/35629884/
◎片  长 99分钟
◎导  演 詹姆斯·库伦·布雷萨克 James Cullen Bressack
◎编  剧 
◎主  演 梅尔·吉布森 Mel Gibson
       莎侬·多赫提 Shannen Doherty
       迈克·韦尔奇 Michael Welch
       凯文·狄龙 Kevin Dillon
       埃迪·斯蒂普斯 Eddie Steeples
       丽迪雅·赫尔 Lydia Hull
       凯特‧卡茨曼 Kate Katzman
       基思·雅各 Keith Jardine
       安娜·哈尔 Anna Harr
       Jonathan Stoddard Jonathan Stoddard
       迪伦·弗拉施纳 Dylan Flashner
       詹姆斯·库伦·布雷萨克 James Cullen Bressack
        Lester G. Reynolds
       查德·迈克尔·墨瑞 Chad Michael Murray

◎简  介

  An ex-hacker is forced to break into high-level banking institutions, another man must try to penetrate the booby trapped building to get the young man off the hot seat.



Video
ID           : 1
ID in the original source medium     : 4113 (0x1011)
Format       : AVC
Format/Info      : Advanced Video Codec
Format profile       : [email protected]
Format settings      : CABAC / 4 Ref Frames
Format settings, CABAC       : Yes
Format settings, Reference frames    : 4 frames
Codec ID         : V_MPEG4/ISO/AVC
Duration         : 1 h 38 min
Bit rate mode        : Variable
Bit rate         : 25.0 Mb/s
Maximum bit rate     : 35.0 Mb/s
Width        : 1 920 pixels
Height       : 1 080 pixels
Display aspect ratio     : 16:9
Frame rate mode      : Constant
Frame rate       : 23.976 (24000/1001) FPS
Standard         : NTSC
Color space      : YUV
Chroma subsampling       : 4:2:0
Bit depth        : 8 bits
Scan type        : Progressive
Bits/(Pixel*Frame)       : 0.503
Stream size      : 17.3 GiB (86%)
Language         : English
Default          : No
Forced       : No
Color range      : Limited
Color primaries      : BT.709
Transfer characteristics     : BT.709
Matrix coefficients      : BT.709
Original source medium       : Blu-ray

Audio #1
ID           : 2
ID in the original source medium     : 4352 (0x1100)
Format       : DTS XLL
Format/Info      : Digital Theater Systems
Commercial name      : DTS-HD Master Audio
Codec ID         : A_DTS
Duration         : 1 h 38 min
Bit rate mode        : Variable
Bit rate         : 3 570 kb/s
Channel(s)       : 6 channels
Channel layout       : C L R Ls Rs LFE
Sampling rate        : 48.0 kHz
Frame rate       : 93.750 FPS (512 SPF)
Bit depth        : 24 bits
Compression mode     : Lossless
Stream size      : 2.47 GiB (12%)
Title        : DTS-HD MA 5.1
Language         : English
Default          : Yes
Forced       : No
Original source medium       : Blu-ray

Audio #2
ID           : 3
ID in the original source medium     : 4353 (0x1101)
Format       : AC-3
Format/Info      : Audio Coding 3
Commercial name      : Dolby Digital
Codec ID         : A_AC3
Duration         : 1 h 38 min
Bit rate mode        : Constant
Bit rate         : 448 kb/s
Channel(s)       : 6 channels
Channel layout       : L R C LFE Ls Rs
Sampling rate        : 48.0 kHz
Frame rate       : 31.250 FPS (1536 SPF)
Compression mode     : Lossy
Stream size      : 317 MiB (2%)
Title        : DD 5.1
Language         : Spanish
Service kind         : Complete Main
Default          : No
Forced       : No
Original source medium       : Blu-ray

Text #1
ID           : 4
Format       : UTF-8
Codec ID         : S_TEXT/UTF8
Codec ID/Info        : UTF-8 Plain Text
Duration         : 1 h 30 min
Bit rate         : 65 b/s
Frame rate       : 0.239 FPS
Count of elements        : 1300
Stream size      : 43.2 KiB (0%)
Language         : English
Default          : Yes
Forced       : No

Text #2
ID           : 5
Format       : UTF-8
Codec ID         : S_TEXT/UTF8
Codec ID/Info        : UTF-8 Plain Text
Duration         : 1 h 35 min
Bit rate         : 66 b/s
Frame rate       : 0.253 FPS
Count of elements        : 1448
Stream size      : 46.8 KiB (0%)
Title        : SDH
Language         : English
Default          : No
Forced       : No

Text #3
ID           : 6
ID in the original source medium     : 4608 (0x1200)
Format       : PGS
Muxing mode      : zlib
Codec ID         : S_HDMV/PGS
Codec ID/Info        : Picture based subtitle format used on BDs/HD-DVDs
Duration         : 1 h 35 min
Bit rate         : 41.8 kb/s
Frame rate       : 0.510 FPS
Count of elements        : 2920
Stream size      : 28.5 MiB (0%)
Language         : English
Default          : No
Forced       : No
Original source medium       : Blu-ray

Text #4
ID           : 7
ID in the original source medium     : 4609 (0x1201)
Format       : PGS
Muxing mode      : zlib
Codec ID         : S_HDMV/PGS
Codec ID/Info        : Picture based subtitle format used on BDs/HD-DVDs
Duration         : 1 h 31 min
Bit rate         : 41.2 kb/s
Frame rate       : 0.487 FPS
Count of elements        : 2660
Stream size      : 26.8 MiB (0%)
Language         : Spanish
Default          : No
Forced       : No
Original source medium       : Blu-ray

Text #5
ID           : 8
ID in the original source medium     : 4610 (0x1202)
Format       : PGS
Muxing mode      : zlib
Codec ID         : S_HDMV/PGS
Codec ID/Info        : Picture based subtitle format used on BDs/HD-DVDs
Duration         : 1 h 30 min
Bit rate         : 37.7 kb/s
Frame rate       : 0.435 FPS
Count of elements        : 2366
Stream size      : 24.4 MiB (0%)
Language         : French
Default          : No
Forced       : No
Original source medium       : Blu-ray

Text #6
ID           : 9
ID in the original source medium     : 4611 (0x1203)
Format       : PGS
Muxing mode      : zlib
Codec ID         : S_HDMV/PGS
Codec ID/Info        : Picture based subtitle format used on BDs/HD-DVDs
Duration         : 1 h 30 min
Bit rate         : 42.5 kb/s
Frame rate       : 0.510 FPS
Count of elements        : 2770
Stream size      : 27.5 MiB (0%)
Language         : Portuguese
Default          : No
Forced       : No
Original source medium       : Blu-ray

Text #7
ID           : 10
ID in the original source medium     : 4612 (0x1204)
Format       : PGS
Muxing mode      : zlib
Codec ID         : S_HDMV/PGS
Codec ID/Info        : Picture based subtitle format used on BDs/HD-DVDs
Duration         : 58 min 53 s
Bit rate         : 326 b/s
Frame rate       : 0.008 FPS
Count of elements        : 28
Stream size      : 141 KiB (0%)
Language         : Spanish
Default          : No
Forced       : No
Original source medium       : Blu-ray

Menu
00:00:00.000         : en:Chapter 01
00:11:24.684         : en:Chapter 02
00:22:48.367         : en:Chapter 03
00:29:31.770         : en:Chapter 04
00:37:48.975         : en:Chapter 05
00:45:16.714         : en:Chapter 06
00:53:33.001         : en:Chapter 07
01:01:53.626         : en:Chapter 08
01:10:07.203         : en:Chapter 09
01:20:28.490         : en:Chapter 10
01:30:44.230         : en:Chapter 11
01:33:19.427         : en:Chapter 12



悠悠MP4_MP4电影下载_致命困境 Hot.Seat.2022.1080p.BluRay.REMUX.AVC.DTS-HD.MA.5.1-FGT 20.11 GB
悠悠MP4_MP4电影下载_致命困境 Hot.Seat.2022.1080p.BluRay.REMUX.AVC.DTS-HD.MA.5.1-FGT 20.11 GB
悠悠MP4_MP4电影下载_致命困境 Hot.Seat.2022.1080p.BluRay.REMUX.AVC.DTS-HD.MA.5.1-FGT 20.11 GB

磁力链接

magnet:?xt=urn:btih:273e238b13cc340a07ab5e76057d83ec3b09bf32

上传的附件:
最新回复 (0)
返回
本站所有资源均收集自互联网,没有提供影片资源存储, 也未参与录制、上传,若本站收录的资源无意侵犯了您的权益, 请联系邮箱:gogoimgs#gmail.com(#[email protected])