[更早] [欧美] [爱情] [x264-1080P] 美女和浪子 Beauty.and.the.Bastard.2005.FINNISH.1080p.BluRay.x264.DD5.1-HANDJOB 7.65 GB

uump4 6天前

悠悠MP4_MP4电影下载_美女和浪子 Beauty.and.the.Bastard.2005.FINNISH.1080p.BluRay.x264.DD5.1-HANDJOB 7.65 GB

◎片  名 美女和浪子 Tyttö sinä olet tähti / Beauty and the Bastard
◎年  代 2005
◎产  地 芬兰
◎类  别 剧情 / 爱情 / 音乐
◎语  言 芬兰语
◎上映日期 2005-10-21
◎IMDb评分  6.5/10 from 3299 users
◎IMDb链接  https://www.imdb.com/title/tt0471957/
◎豆瓣评分 /10 from 0 users
◎豆瓣链接 https://movie.douban.com/subject/2053415/
◎片  长 102 分钟
◎导  演 多姆·卡如库斯基 Dome Karukoski
◎编  剧 派克·皮松讷 Pekko Pesonen
◎主  演 萨穆利·瓦拉莫 Samuli Vauramo
       乔纳斯·萨特莫 Joonas Saartamo
       米科·莱皮兰皮 Mikko Leppilampi
       帕梅拉·托拉 Pamela Tola
       Jussi Nikkilä Jussi Nikkilä
       Paleface Paleface
       Eero Saarinen Eero Saarinen
       Jaana Järvinen Jaana Järvinen
       Anna-Leena Härkönen Anna-Leena Härkönen
       Rainer Kaunisto Rainer Kaunisto
       米·库基 Mikko Kouki
       玛拉·毛米瓦拉 Malla Malmivaara
       多姆·卡如库斯基 Dome Karukoski
       艾琳娜·里夫 Elena Leeve

◎简  介

  奈莉正努力上医学院,如果父母能帮助她的话.尽管她的梦想是成为一名歌手.如果有一天她能有幸得到展示的机会,她就能把才华展示给录制公司了.                                    
      苏耐是个有才华的街舞DJ, 但他害怕女人.尽管他的朋友们不相信,他还是打赌能把奈莉搞上手.但是奈莉却从中发现展示自己的机遇.                                    
      两个人相互利用,不禁陷入爱情. 但他们彼此需要就出很多让步. 女主人公需要学会停止讨好他人, 苏耐需要在生活和艺术中更加关注他人.



Video
ID           : 1
Format       : AVC
Format/Info      : Advanced Video Codec
Format profile       : [email protected]
Format settings      : CABAC / 5 Ref Frames
Format settings, CABAC       : Yes
Format settings, Reference frames    : 5 frames
Codec ID         : V_MPEG4/ISO/AVC
Duration         : 1 h 40 min
Bit rate         : 10.1 Mb/s
Width        : 1 916 pixels
Height       : 818 pixels
Display aspect ratio     : 2.35:1
Frame rate mode      : Constant
Frame rate       : 23.976 (24000/1001) FPS
Color space      : YUV
Chroma subsampling       : 4:2:0
Bit depth        : 8 bits
Scan type        : Progressive
Bits/(Pixel*Frame)       : 0.270
Stream size      : 7.13 GiB (93%)
Writing library      : x264 core 164 r3065 ae03d92
Encoding settings        : cabac=1 / ref=5 / deblock=1:-3:-3 / analyse=0x3:0x133 / me=umh / subme=10 / psy=1 / psy_rd=1.00:0.00 / mixed_ref=1 / me_range=32 / chroma_me=1 / trellis=2 / 8x8dct=1 / cqm=0 / deadzone=21,11 / fast_pskip=0 / chroma_qp_offset=-2 / threads=18 / lookahead_threads=4 / sliced_threads=0 / nr=0 / decimate=0 / interlaced=0 / bluray_compat=0 / constrained_intra=0 / bframes=16 / b_pyramid=2 / b_adapt=2 / b_bias=0 / direct=3 / weightb=1 / open_gop=0 / weightp=2 / keyint=240 / keyint_min=24 / scenecut=40 / intra_refresh=0 / rc_lookahead=60 / rc=crf / mbtree=0 / crf=20.0 / qcomp=0.60 / qpmin=0 / qpmax=69 / qpstep=4 / vbv_maxrate=62500 / vbv_bufsize=78125 / crf_max=0.0 / nal_hrd=none / filler=0 / ip_ratio=1.40 / pb_ratio=1.30 / aq=2:1.00
Default          : Yes
Forced       : No
Color range      : Limited
Color primaries      : BT.709
Transfer characteristics     : BT.709
Matrix coefficients      : BT.709

Audio #1
ID           : 2
Format       : AC-3
Format/Info      : Audio Coding 3
Commercial name      : Dolby Digital
Codec ID         : A_AC3
Duration         : 1 h 40 min
Bit rate mode        : Constant
Bit rate         : 640 kb/s
Channel(s)       : 6 channels
Channel layout       : L R C LFE Ls Rs
Sampling rate        : 48.0 kHz
Frame rate       : 31.250 FPS (1536 SPF)
Compression mode     : Lossy
Stream size      : 461 MiB (6%)
Language         : Finnish
Service kind         : Complete Main
Default          : Yes
Forced       : No

Audio #2
ID           : 3
Format       : AAC LC
Format/Info      : Advanced Audio Codec Low Complexity
Codec ID         : A_AAC-2
Duration         : 1 h 40 min
Bit rate         : 96.0 kb/s
Channel(s)       : 2 channels
Channel layout       : L R
Sampling rate        : 48.0 kHz
Frame rate       : 46.875 FPS (1024 SPF)
Compression mode     : Lossy
Delay relative to video      : 9 ms
Stream size      : 69.1 MiB (1%)
Title        : Commentary by director Dome Karukoski and script writer Pekko Pesonen
Language         : Finnish
Default          : No
Forced       : No

Text #1
ID           : 4
Format       : UTF-8
Codec ID         : S_TEXT/UTF8
Codec ID/Info        : UTF-8 Plain Text
Duration         : 1 h 34 min
Bit rate         : 42 b/s
Frame rate       : 0.131 FPS
Count of elements        : 748
Stream size      : 29.4 KiB (0%)
Language         : English
Default          : Yes
Forced       : No

Text #2
ID           : 5
Format       : UTF-8
Codec ID         : S_TEXT/UTF8
Codec ID/Info        : UTF-8 Plain Text
Duration         : 1 h 35 min
Bit rate         : 57 b/s
Frame rate       : 0.148 FPS
Count of elements        : 849
Stream size      : 39.9 KiB (0%)
Language         : Finnish
Default          : No
Forced       : No

Text #3
ID           : 6
Format       : UTF-8
Codec ID         : S_TEXT/UTF8
Codec ID/Info        : UTF-8 Plain Text
Duration         : 1 h 40 min
Bit rate         : 49 b/s
Frame rate       : 0.148 FPS
Count of elements        : 890
Stream size      : 36.4 KiB (0%)
Language         : Swedish
Default          : No
Forced       : No

Menu
00:00:00.000         : :Chapter 1
00:05:06.348         : :Chapter 2
00:10:12.821         : :Chapter 3
00:16:51.427         : :Chapter 4
00:21:58.400         : :Chapter 5
00:23:11.724         : :Chapter 6
00:34:50.255         : :Chapter 7
00:40:29.260         : :Chapter 8
00:42:14.991         : :Chapter 9
00:43:36.405         : :Chapter 10
00:52:06.874         : :Chapter 11
00:58:37.222         : :Chapter 12
01:01:22.053         : :Chapter 13
01:07:13.321         : :Chapter 14
01:11:05.261         : :Chapter 15
01:19:33.852         : :Chapter 16
01:25:29.541         : :Chapter 17
01:35:31.935         : :Chapter 18
01:36:10.723         : :Chapter 19



悠悠MP4_MP4电影下载_美女和浪子 Beauty.and.the.Bastard.2005.FINNISH.1080p.BluRay.x264.DD5.1-HANDJOB 7.65 GB
悠悠MP4_MP4电影下载_美女和浪子 Beauty.and.the.Bastard.2005.FINNISH.1080p.BluRay.x264.DD5.1-HANDJOB 7.65 GB
悠悠MP4_MP4电影下载_美女和浪子 Beauty.and.the.Bastard.2005.FINNISH.1080p.BluRay.x264.DD5.1-HANDJOB 7.65 GB

磁力链接

magnet:?xt=urn:btih:599bdfe17991c8a9fae242d0a3ab20b60b22147d

上传的附件:
最新回复 (0)
返回
本站所有资源均收集自互联网,没有提供影片资源存储, 也未参与录制、上传,若本站收录的资源无意侵犯了您的权益, 请联系邮箱:gogoimgs#gmail.com(#[email protected])