[2015] [欧美] [剧情] [x264-1080P] 姊妹情殇 My.Skinny.Sister.2015.SWEDISH.1080p.BluRay.x264.DD5.1-HANDJOB 6.51 GB

uump4 6天前

悠悠MP4_MP4电影下载_姊妹情殇 My.Skinny.Sister.2015.SWEDISH.1080p.BluRay.x264.DD5.1-HANDJOB 6.51 GB

◎片  名 姊妹情殇 Min lilla syster / My Skinny Sister / 我的瘦姐姐 / 姐妹情深
◎年  代 2015
◎产  地 瑞典 / 德国
◎类  别 剧情
◎语  言 瑞典语
◎上映日期 2015-04(北京国际电影节)
◎IMDb评分  6.7/10 from 1649 users
◎IMDb链接  https://www.imdb.com/title/tt4093680/
◎豆瓣评分 7.2/10 from 162 users
◎豆瓣链接 https://movie.douban.com/subject/26284478/
◎片  长 95分钟
◎导  演 桑娜·伦肯 Sanna Lenken
◎编  剧 桑娜·伦肯 Sanna Lenken
◎主  演 安妮卡·哈林 Annika Hallin
       马克西姆·梅米特 Maxim Mehmet

◎简  介

  Stella怀抱着十分激动的心情进入大人们的世界。然后她发现姐姐和精神榜样Katja在一起隐瞒进食障碍症。这场病慢慢地侵蚀着她们家庭的和谐。这是一个讲述隐藏在微笑、温暖之下关于嫉妒、爱、背叛的故事。



Video
ID           : 1
Format       : AVC
Format/Info      : Advanced Video Codec
Format profile       : [email protected]
Format settings      : CABAC / 5 Ref Frames
Format settings, CABAC       : Yes
Format settings, Reference frames    : 5 frames
Codec ID         : V_MPEG4/ISO/AVC
Duration         : 1 h 34 min
Bit rate         : 9 152 kb/s
Width        : 1 920 pixels
Height       : 804 pixels
Display aspect ratio     : 2.40:1
Frame rate mode      : Constant
Frame rate       : 24.000 FPS
Color space      : YUV
Chroma subsampling       : 4:2:0
Bit depth        : 8 bits
Scan type        : Progressive
Bits/(Pixel*Frame)       : 0.247
Stream size      : 6.06 GiB (93%)
Writing library      : x264 core 164 r3065 ae03d92
Encoding settings        : cabac=1 / ref=5 / deblock=1:-3:-3 / analyse=0x3:0x133 / me=umh / subme=10 / psy=1 / psy_rd=1.00:0.00 / mixed_ref=1 / me_range=32 / chroma_me=1 / trellis=2 / 8x8dct=1 / cqm=0 / deadzone=21,11 / fast_pskip=0 / chroma_qp_offset=-2 / threads=25 / lookahead_threads=6 / sliced_threads=0 / nr=0 / decimate=0 / interlaced=0 / bluray_compat=0 / constrained_intra=0 / bframes=16 / b_pyramid=2 / b_adapt=2 / b_bias=0 / direct=3 / weightb=1 / open_gop=0 / weightp=2 / keyint=240 / keyint_min=24 / scenecut=40 / intra_refresh=0 / rc_lookahead=60 / rc=crf / mbtree=0 / crf=17.5 / qcomp=0.60 / qpmin=0 / qpmax=69 / qpstep=4 / vbv_maxrate=62500 / vbv_bufsize=78125 / crf_max=0.0 / nal_hrd=none / filler=0 / ip_ratio=1.40 / pb_ratio=1.30 / aq=2:1.00
Default          : Yes
Forced       : No
Color range      : Limited
Color primaries      : BT.709
Transfer characteristics     : BT.709
Matrix coefficients      : BT.709

Audio
ID           : 2
Format       : AC-3
Format/Info      : Audio Coding 3
Commercial name      : Dolby Digital
Codec ID         : A_AC3
Duration         : 1 h 34 min
Bit rate mode        : Constant
Bit rate         : 640 kb/s
Channel(s)       : 6 channels
Channel layout       : L R C LFE Ls Rs
Sampling rate        : 48.0 kHz
Frame rate       : 31.250 FPS (1536 SPF)
Compression mode     : Lossy
Stream size      : 434 MiB (7%)
Language         : Swedish
Service kind         : Complete Main
Default          : Yes
Forced       : No

Text #1
ID           : 3
Format       : UTF-8
Codec ID         : S_TEXT/UTF8
Codec ID/Info        : UTF-8 Plain Text
Duration         : 1 h 30 min
Bit rate         : 33 b/s
Frame rate       : 0.114 FPS
Count of elements        : 616
Stream size      : 21.9 KiB (0%)
Language         : English
Default          : Yes
Forced       : No

Text #2
ID           : 4
Format       : PGS
Muxing mode      : zlib
Codec ID         : S_HDMV/PGS
Codec ID/Info        : Picture based subtitle format used on BDs/HD-DVDs
Duration         : 1 h 30 min
Bit rate         : 22.1 kb/s
Frame rate       : 0.243 FPS
Count of elements        : 1324
Stream size      : 14.4 MiB (0%)
Language         : Danish
Default          : No
Forced       : No

Text #3
ID           : 5
Format       : UTF-8
Codec ID         : S_TEXT/UTF8
Codec ID/Info        : UTF-8 Plain Text
Duration         : 1 h 31 min
Bit rate         : 31 b/s
Frame rate       : 0.126 FPS
Count of elements        : 691
Stream size      : 21.0 KiB (0%)
Language         : Dutch
Default          : No
Forced       : No

Text #4
ID           : 6
Format       : PGS
Muxing mode      : zlib
Codec ID         : S_HDMV/PGS
Codec ID/Info        : Picture based subtitle format used on BDs/HD-DVDs
Duration         : 1 h 30 min
Bit rate         : 23.4 kb/s
Frame rate       : 0.247 FPS
Count of elements        : 1343
Stream size      : 15.2 MiB (0%)
Language         : Swedish
Default          : No
Forced       : No

Menu
00:00:00.000         : en:Chapter 1
00:11:46.625         : en:Chapter 2
00:23:51.000         : en:Chapter 3
00:38:32.667         : en:Chapter 4
00:49:01.667         : en:Chapter 5
00:59:17.417         : en:Chapter 6
01:13:29.292         : en:Chapter 7
01:24:17.167         : en:Chapter 8



悠悠MP4_MP4电影下载_姊妹情殇 My.Skinny.Sister.2015.SWEDISH.1080p.BluRay.x264.DD5.1-HANDJOB 6.51 GB
悠悠MP4_MP4电影下载_姊妹情殇 My.Skinny.Sister.2015.SWEDISH.1080p.BluRay.x264.DD5.1-HANDJOB 6.51 GB
悠悠MP4_MP4电影下载_姊妹情殇 My.Skinny.Sister.2015.SWEDISH.1080p.BluRay.x264.DD5.1-HANDJOB 6.51 GB

磁力链接

magnet:?xt=urn:btih:7658d5a5dfea5fc0cf20a4b2d16edd17704802ae

上传的附件:
最新回复 (0)
返回
本站所有资源均收集自互联网,没有提供影片资源存储, 也未参与录制、上传,若本站收录的资源无意侵犯了您的权益, 请联系邮箱:gogoimgs#gmail.com(#[email protected])