[更早] [欧美] [爱情] [x264-1080P] 威克的女孩 The.Maids.of.Wilko.1979.POLISH.1080p.BluRay.x264.DD2.0-VOMiR 14.21 GB

uump4 6天前

悠悠MP4_MP4电影下载_威克的女孩 The.Maids.of.Wilko.1979.POLISH.1080p.BluRay.x264.DD2.0-VOMiR 14.21 GB

◎片  名 威克的女孩 Panny z Wilka / The Girl from Wilko / Demoiselles de Wilko, Les
◎年  代 1979
◎产  地 波兰 / 法国
◎类  别 剧情 / 爱情
◎语  言 波兰语 / 法语
◎上映日期 1979-09-04(波兰)
◎IMDb评分  7.4/10 from 1284 users
◎IMDb链接  https://www.imdb.com/title/tt0079696/
◎豆瓣评分 7.7/10 from 194 users
◎豆瓣链接 https://movie.douban.com/subject/1303068/
◎片  长 118 分钟
◎导  演 安杰伊·瓦伊达 Andrzej Wajda
◎编  剧 伊瓦什凯维奇 Jaroslaw Iwaszkiewicz
       兹比格涅夫·卡明斯基 Zbigniew Kaminski
       马娅·科莫罗夫斯卡 Maja Komorowska
◎主  演 达尼尔·奥勒布里斯基 Daniel Olbrychski
       Anna Seniuk Anna Seniuk
       马娅·科莫罗夫斯卡 Maja Komorowska
       斯坦尼拉娃·塞林斯卡 Stanislawa Celinska
       克里斯蒂娜·扎赫瓦托维奇 Krystyna Zachwatowicz
       克里斯蒂娜·帕斯卡尔 Christine Pascal
       比涅尤·扎塔西奇斯 Zbigniew Zapasiewicz
       Zofia Jaroszewska Zofia Jaroszewska
       塔德乌什·贝亚洛诚辛斯基 Tadeusz Bialoszczynski
       保罗·盖尔 Paul Guers
       Kazimierz Brodzikowski Kazimierz Brodzikowski
       Andrzej Grzybowski Andrzej Grzybowski
       伊瓦什凯维奇 Jaroslaw Iwaszkiewicz
       Filip Jasienski Filip Jasienski
       Witold Kaluski Witold Kaluski
       Alina Rostkowska Alina Rostkowska
       Barbara Stepniakówna Barbara Stepniakówna
       Krystyna Wolanska Krystyna Wolanska
       Stanislaw Zaczyk Stanislaw Zaczyk
       Andrzej Szenajch Andrzej Szenajch
       Kazimierz Orzechowski Kazimierz Orzechowski
       Joanna Poraska Joanna Poraska
       安杰伊·瓦皮茨基 Andrzej Łapicki
       Halina Michalska Halina Michalska

◎简  介

  波兰电影大师瓦依达1979年作品,根据波兰小说名著改编,曾获得奥斯卡最佳外语片奖提名。15年以后,维多回到了威克,一个他曾经度过一段难忘时期的地方,他渐渐明白自己对这里的人曾经有很大的影响。他的出现,让曾经喜欢他的威克的女孩们重新认识自己,他也开始寻找生命的意义.....=====正太猫

◎获奖情况

  第52届奥斯卡金像奖 (1980)
  最佳外语片(提名)



Video
ID           : 1
Format       : AVC
Format/Info      : Advanced Video Codec
Format profile       : [email protected]
Format settings      : CABAC / 4 Ref Frames
Format settings, CABAC       : Yes
Format settings, Reference frames    : 4 frames
Codec ID         : V_MPEG4/ISO/AVC
Duration         : 1 h 51 min
Bit rate         : 18.0 Mb/s
Width        : 1 798 pixels
Height       : 1 080 pixels
Display aspect ratio     : 5:3
Frame rate mode      : Constant
Frame rate       : 25.000 FPS
Color space      : YUV
Chroma subsampling       : 4:2:0
Bit depth        : 8 bits
Scan type        : Progressive
Bits/(Pixel*Frame)       : 0.370
Stream size      : 14.0 GiB (99%)
Writing library      : x264 core 163 r3059 b684ebe0
Encoding settings        : cabac=1 / ref=4 / deblock=1:-3:-3 / analyse=0x3:0x133 / me=umh / subme=10 / psy=1 / psy_rd=1.00:0.00 / mixed_ref=1 / me_range=32 / chroma_me=1 / trellis=2 / 8x8dct=1 / cqm=0 / deadzone=21,11 / fast_pskip=0 / chroma_qp_offset=-2 / threads=9 / lookahead_threads=2 / sliced_threads=0 / nr=0 / decimate=0 / interlaced=0 / bluray_compat=0 / constrained_intra=0 / bframes=16 / b_pyramid=2 / b_adapt=2 / b_bias=0 / direct=3 / weightb=1 / open_gop=0 / weightp=1 / keyint=250 / keyint_min=25 / scenecut=40 / intra_refresh=0 / rc_lookahead=60 / rc=crf / mbtree=0 / crf=19.8 / qcomp=0.60 / qpmin=0 / qpmax=69 / qpstep=4 / vbv_maxrate=62500 / vbv_bufsize=78125 / crf_max=0.0 / nal_hrd=none / filler=0 / ip_ratio=1.40 / pb_ratio=1.30 / aq=2:1.00
Default          : Yes
Forced       : No
Color range      : Limited
Color primaries      : BT.709
Transfer characteristics     : BT.709
Matrix coefficients      : BT.709

Audio
ID           : 2
Format       : AC-3
Format/Info      : Audio Coding 3
Commercial name      : Dolby Digital
Format settings      : Dolby Surround
Codec ID         : A_AC3
Duration         : 1 h 51 min
Bit rate mode        : Constant
Bit rate         : 224 kb/s
Channel(s)       : 2 channels
Channel layout       : L R
Sampling rate        : 48.0 kHz
Frame rate       : 31.250 FPS (1536 SPF)
Compression mode     : Lossy
Stream size      : 179 MiB (1%)
Language         : Polish
Service kind         : Complete Main
Default          : Yes
Forced       : No

Text #1
ID           : 3
Format       : UTF-8
Codec ID         : S_TEXT/UTF8
Codec ID/Info        : UTF-8 Plain Text
Duration         : 1 h 49 min
Bit rate         : 34 b/s
Frame rate       : 0.142 FPS
Count of elements        : 932
Stream size      : 28.1 KiB (0%)
Title        : srt
Language         : English
Default          : Yes
Forced       : No

Text #2
ID           : 4
Format       : PGS
Codec ID         : S_HDMV/PGS
Codec ID/Info        : Picture based subtitle format used on BDs/HD-DVDs
Duration         : 1 h 49 min
Bit rate         : 21.2 kb/s
Frame rate       : 0.283 FPS
Count of elements        : 1864
Stream size      : 16.7 MiB (0%)
Title        : sup
Language         : English
Default          : No
Forced       : No

Menu
00:00:00.000         : :Chapter 1
00:07:34.160         : :Chapter 2
00:16:48.160         : :Chapter 3
00:24:39.160         : :Chapter 4
00:34:14.280         : :Chapter 5
00:47:06.120         : :Chapter 6
00:58:42.000         : :Chapter 7
01:12:47.480         : :Chapter 8
01:23:36.800         : :Chapter 9
01:38:07.080         : :Chapter 10
01:46:29.920         : :Chapter 11
01:50:56.160         : :Chapter 12



悠悠MP4_MP4电影下载_威克的女孩 The.Maids.of.Wilko.1979.POLISH.1080p.BluRay.x264.DD2.0-VOMiR 14.21 GB
悠悠MP4_MP4电影下载_威克的女孩 The.Maids.of.Wilko.1979.POLISH.1080p.BluRay.x264.DD2.0-VOMiR 14.21 GB
悠悠MP4_MP4电影下载_威克的女孩 The.Maids.of.Wilko.1979.POLISH.1080p.BluRay.x264.DD2.0-VOMiR 14.21 GB

磁力链接

magnet:?xt=urn:btih:246c0ff9d6d6ba55d4212d27865924fc950dd315

上传的附件:
最新回复 (0)
返回
本站所有资源均收集自互联网,没有提供影片资源存储, 也未参与录制、上传,若本站收录的资源无意侵犯了您的权益, 请联系邮箱:gogoimgs#gmail.com(#[email protected])