[2021] [欧美] [剧情] [x264-1080P] 蠼螋 Earwig.2021.1080p.WEBRip.x264-RARBG 2.18 GB

uump4 5天前

悠悠MP4_MP4电影下载_蠼螋 Earwig.2021.1080p.WEBRip.x264-RARBG 2.18 GB

◎片  名 蠼螋 Earwig
◎年  代 2021
◎产  地 英国 / 法国
◎类  别 剧情
◎语  言 英语
◎上映日期 2021-09(圣塞巴斯蒂安电影节)
◎IMDb评分  6.0/10 from 263 users
◎IMDb链接  https://www.imdb.com/title/tt10062338/
◎豆瓣评分 /10 from 0 users
◎豆瓣链接 https://movie.douban.com/subject/34964130/
◎片  长 114分钟
◎导  演 露西尔·哈兹哈利洛维奇 Lucile Hadzihalilovic
◎编  剧 露西尔·哈兹哈利洛维奇 Lucile Hadzihalilovic
       吉尔夫·考克斯 Geoff Cox
◎主  演 保罗·希尔顿 Paul Hilton
       埃里克斯·劳瑟 Alex Lawther
       萝玛拉·嘉瑞 Romola Garai

◎简  介

  保罗·希尔顿([永恒美人])、埃里克斯·劳瑟、萝玛拉·嘉瑞将主演新片[蠼螋]。该片由露西尔·哈兹哈利洛维奇([进化岛])执导,露西尔与吉尔夫·考克斯([太空生活])共同操刀剧本。该片根据Brian Catling的同名小说改编,讲述在20世纪30年代的欧洲某地,孤僻的Albert Scellinc受雇照顾10岁的Mia。他最重要的任务是照料她的冰假牙,这些假牙需要每天都要换好几次。他们单独住在一间大公寓里:百叶窗总是拉着,Mia从不离开,每天都是一成不变。每周,电话铃声会响起,一个男声会询问Albert女孩的健康状况,Albert每周都会用同样的答案来回答,直到有一天,那个声音告诉Albert,他必须坐着火车把女孩带到巴黎去。Albert伤心欲绝,他感觉他的世界在他身边慢慢解体了。该片已在比利时开拍。

◎获奖情况

  第46届多伦多国际电影节 (2021)
  站台奖(提名)
  露西尔·哈兹哈利洛维奇

  第69届圣塞巴斯蒂安国际电影节 (2021)
  金贝壳奖(提名)
  露西尔·哈兹哈利洛维奇评审团特别奖
  露西尔·哈兹哈利洛维奇



Video
ID           : 1
Format       : AVC
Format/Info      : Advanced Video Codec
Format profile       : [email protected]
Format settings      : CABAC / 4 Ref Frames
Format settings, CABAC       : Yes
Format settings, Reference frames    : 4 frames
Codec ID         : avc1
Codec ID/Info        : Advanced Video Coding
Duration         : 1 h 54 min
Bit rate         : 2 500 kb/s
Width        : 1 920 pixels
Height       : 804 pixels
Display aspect ratio     : 2.40:1
Frame rate mode      : Constant
Frame rate       : 24.000 FPS
Color space      : YUV
Chroma subsampling       : 4:2:0
Bit depth        : 8 bits
Scan type        : Progressive
Bits/(Pixel*Frame)       : 0.067
Stream size      : 2.00 GiB (92%)
Writing library      : x264 core 152 r2851M ba24899
Encoding settings        : cabac=1 / ref=4 / deblock=1:-1:-1 / analyse=0x3:0x113 / me=umh / subme=9 / psy=1 / psy_rd=1.00:0.15 / mixed_ref=1 / me_range=24 / chroma_me=1 / trellis=2 / 8x8dct=1 / cqm=0 / deadzone=21,11 / fast_pskip=1 / chroma_qp_offset=-3 / threads=16 / lookahead_threads=4 / sliced_threads=0 / nr=0 / decimate=1 / interlaced=0 / bluray_compat=0 / constrained_intra=0 / bframes=3 / b_pyramid=2 / b_adapt=2 / b_bias=0 / direct=3 / weightb=1 / open_gop=0 / weightp=2 / keyint=250 / keyint_min=25 / scenecut=40 / intra_refresh=0 / rc_lookahead=50 / rc=2pass / mbtree=1 / bitrate=2500 / ratetol=1.0 / qcomp=0.60 / qpmin=0 / qpmax=69 / qpstep=4 / cplxblur=20.0 / qblur=0.5 / vbv_maxrate=31250 / vbv_bufsize=31250 / nal_hrd=none / filler=0 / ip_ratio=1.40 / aq=3:1.00
Encoded date         : UTC 2022-08-05 19:54:51
Tagged date      : UTC 2022-08-05 19:54:51
Codec configuration box      : avcC

Audio
ID           : 2
Format       : AAC LC
Format/Info      : Advanced Audio Codec Low Complexity
Codec ID         : mp4a-40-2
Duration         : 1 h 54 min
Bit rate mode        : Constant
Bit rate         : 224 kb/s
Channel(s)       : 2 channels
Channel layout       : L R
Sampling rate        : 48.0 kHz
Frame rate       : 46.875 FPS (1024 SPF)
Compression mode     : Lossy
Stream size      : 183 MiB (8%)
Language         : English
Default          : Yes
Alternate group      : 1
Encoded date         : UTC 2022-08-05 19:54:51
Tagged date      : UTC 2022-08-05 19:54:51



悠悠MP4_MP4电影下载_蠼螋 Earwig.2021.1080p.WEBRip.x264-RARBG 2.18 GB
悠悠MP4_MP4电影下载_蠼螋 Earwig.2021.1080p.WEBRip.x264-RARBG 2.18 GB
悠悠MP4_MP4电影下载_蠼螋 Earwig.2021.1080p.WEBRip.x264-RARBG 2.18 GB

磁力链接

magnet:?xt=urn:btih:7573d90e92b6a0dc4355b1e8e0b12f222fe50658

上传的附件:
最新回复 (0)
返回
本站所有资源均收集自互联网,没有提供影片资源存储, 也未参与录制、上传,若本站收录的资源无意侵犯了您的权益, 请联系邮箱:gogoimgs#gmail.com(#[email protected])