[2006] [欧美] [喜剧] [x264-720P] 世界是平的 Outsourced.2006.720p.WEB.H264-DiMEPiECE 4.26 GB

uump4 5天前

悠悠MP4_MP4电影下载_世界是平的 Outsourced.2006.720p.WEB.H264-DiMEPiECE 4.26 GB

◎片  名 世界是平的 Outsourced / 一个美国人在印度
◎年  代 2006
◎产  地 美国
◎类  别 剧情 / 喜剧 / 爱情
◎语  言 英语 / 印度语
◎上映日期 2006-09-12
◎IMDb评分  7.0/10 from 11774 users
◎IMDb链接  https://www.imdb.com/title/tt0425326/
◎豆瓣评分 7.2/10 from 4636 users
◎豆瓣链接 https://movie.douban.com/subject/3022862/
◎片  长 USA: 103 分钟(theatrical version) / Canada: 98 分钟(Toronto International Film Festival)
◎导  演 约翰·杰夫考特 John Jeffcoat
◎编  剧 乔治·温 George Wing
       约翰·杰夫考特 John Jeffcoat
◎主  演 阿西夫·巴斯拉 Asif Basra
       阿耶莎·达尔克 Ayesha Dharker
       约什·汉密尔顿 Josh Hamilton
       阿见·马瑟 Arjun Mathur
       柯坦·梅赫塔 Ketan Mehta
       拉里·派恩 Larry Pine

◎简  介

  电话收单业务主管陶德(Josh Hamilton 饰)惊闻公司要将电话收单外包,相同的工作交由印度职员完成,实在可以节省不少成本。陶德被公司借鸡下蛋派往印度培训当地接班人。苦于工作未满年限陶德只得服从安排。                                    
      甫下飞机,陶德便目睹印度邋遢又充满活力的异域特色,除了名字被念做托德(蟾蜍)以外似乎没有太大不妥,前来接站的接班人普洛的名片上赫然写着“未来经理”。陶德入住一家私人旅馆,同时经过战场般的荷丽节洗礼,得以更加亲近印度文化。另一方面,陶德为提高工作效率在培训之外适度奖励,收效明显。随着印度部门业绩提升,陶德离开的时候快到了,但他实在不愿让与下属亚莎的爱情成为一段回忆……



Video
ID           : 1
Format       : AVC
Format/Info      : Advanced Video Codec
Format profile       : [email protected]
Format settings      : CABAC / 4 Ref Frames
Format settings, CABAC       : Yes
Format settings, Reference frames    : 4 frames
Codec ID         : V_MPEG4/ISO/AVC
Duration         : 1 h 42 min
Bit rate mode        : Constant
Bit rate         : 6 000 kb/s
Width        : 1 280 pixels
Height       : 720 pixels
Display aspect ratio     : 16:9
Frame rate mode      : Constant
Frame rate       : 24.000 FPS
Color space      : YUV
Chroma subsampling       : 4:2:0
Bit depth        : 8 bits
Scan type        : Progressive
Bits/(Pixel*Frame)       : 0.271
Stream size      : 4.10 GiB (96%)
Language         : English
Default          : Yes
Forced       : No
Color range      : Limited
Color primaries      : BT.709
Transfer characteristics     : BT.709
Matrix coefficients      : BT.709

Audio
ID           : 2
Format       : E-AC-3
Format/Info      : Enhanced AC-3
Commercial name      : Dolby Digital Plus
Codec ID         : A_EAC3
Duration         : 1 h 42 min
Bit rate mode        : Constant
Bit rate         : 224 kb/s
Channel(s)       : 2 channels
Channel layout       : L R
Sampling rate        : 48.0 kHz
Frame rate       : 31.250 FPS (1536 SPF)
Compression mode     : Lossy
Stream size      : 164 MiB (4%)
Title        : English
Language         : English
Service kind         : Complete Main
Default          : Yes
Forced       : No

Text
ID           : 3
Format       : UTF-8
Codec ID         : S_TEXT/UTF8
Codec ID/Info        : UTF-8 Plain Text
Duration         : 1 h 41 min
Bit rate         : 62 b/s
Count of elements        : 1680
Stream size      : 46.1 KiB (0%)
Title        : English
Language         : English
Default          : No
Forced       : No



Screenshots:
悠悠MP4_MP4电影下载_世界是平的 Outsourced.2006.720p.WEB.H264-DiMEPiECE 4.26 GB
Outsourced.2006.720p.WEB.H264-DiMEPiECE

info.....: https://www.imdb.com/title/tt0425326/
date.....: 2022-08-05
video....: 1280x720 / 6000kb/s
audio....: E-AC-3 / 224kb/s
duration.: 1 h 42 min
language.: English
subtitles: English

磁力链接

magnet:?xt=urn:btih:e9baff6ccc27812d823d265ad8c578b1ef35e7cd

上传的附件:
最新回复 (0)
返回
本站所有资源均收集自互联网,没有提供影片资源存储, 也未参与录制、上传,若本站收录的资源无意侵犯了您的权益, 请联系邮箱:gogoimgs#gmail.com(#[email protected])