[更早] [日本] [动画] [x264-1080P] 亚里安 Arion.1986.1080p.BluRay.x264-HAiKU 16.53 GB

uump4 1月前

悠悠MP4_MP4电影下载_亚里安 Arion.1986.1080p.BluRay.x264-HAiKU 16.53 GB

◎片  名 亚里安 アリオン / ARION
◎年  代 1986
◎产  地 日本
◎类  别 动作 / 动画 / 战争 / 奇幻 / 冒险
◎语  言 日语
◎上映日期 1986-03-15(日本)
◎IMDb评分  6.5/10 from 333 users
◎IMDb链接  https://www.imdb.com/title/tt0090658/
◎豆瓣评分 7.4/10 from 428 users
◎豆瓣链接 https://movie.douban.com/subject/2173413/
◎片  长 118分钟
◎导  演 安彦良和 Yoshikazu Yasuhiko
◎编  剧 田中晶子 Akiko Tanaka
       安彦良和 Yoshikazu Yasuhiko
◎主  演 中原茂 Shigeru Nakahara
       高桥美纪 Miki Takahashi
       田中真弓 Mayumi Tanaka
       铃置洋孝 Hirotaka Suzuoki
       胜生真沙子 Masako Katsuki
       大塚周夫 Chikao Ôtsuka
       小林清志 Kiyoshi Kobayashi
       大久保正信 Masanobu Ôkubo
       永井一郎 Ichirô Nagai
       武藤礼子 Reiko Mutô
       田中秀幸 Hideyuki Tanaka
       小宫和枝 Kazue Komiya
       来宫良子 Ryôko Kinomiya
       西尾德 Toku Nishio
       乡里大辅 Daisuke Gôri
       岛田敏 Bin Shimada
       太田贵子 Takako Ôta
       宫内幸平 Kôhei Miyauchi
       京田尚子 Hisako Kyôda
       西村知道 Tomomichi Nishimura
       龟井三郎 Kamei Saburou
       藤井佳代子 Fujii Kayoko
       立木文彦 Fumihiko Tachiki
       高宫俊介 Shunsuke Takamiya
       菊池正美 Masami Kikuchi
       卷岛直树 Makishima Naoki

◎简  介

  亚里安(中原茂 配音)本是普罗米修斯和潘多拉的孩子,然而潘多拉在还未生下亚里安之时就战死了,普罗米修斯拼尽全力才让亚里安有了降临这个世界的机会。之后,普罗米修斯因为盗取圣火而遭到了宙斯的处罚,亚里安辗转被德墨忒尔收养,可很快,德墨忒尔也遭遇了悲惨的命运,冥王哈迪斯趁机掳走了亚里安,令他相信自己是海王波塞冬的儿子,为了寻找父亲,亚里安踏上了旅途,不仅如此,他还发誓要杀死宙斯为自己的亲人们复仇。                                    
      诸神之战开始了,雅典娜作为宙斯一方,带领着地上的人民和海王展开了殊死搏斗,而亚里安则彻底沦为哈迪斯利用的工具。



Video
ID           : 1
Format       : AVC
Format/Info      : Advanced Video Codec
Format profile       : [email protected]
Format settings      : CABAC / 4 Ref Frames
Format settings, CABAC       : Yes
Format settings, Reference frames    : 4 frames
Codec ID         : V_MPEG4/ISO/AVC
Duration         : 2 h 0 min
Bit rate         : 19.0 Mb/s
Width        : 1 916 pixels
Height       : 1 080 pixels
Display aspect ratio     : 16:9
Frame rate mode      : Constant
Frame rate       : 23.976 (24000/1001) FPS
Color space      : YUV
Chroma subsampling       : 4:2:0
Bit depth        : 8 bits
Scan type        : Progressive
Bits/(Pixel*Frame)       : 0.384
Stream size      : 16.0 GiB (97%)
Writing library      : x264 core 164 r3094 bfc87b7
Encoding settings        : cabac=1 / ref=4 / deblock=1:-1:1 / analyse=0x3:0x133 / me=umh / subme=10 / psy=1 / psy_rd=0.50:0.00 / mixed_ref=1 / me_range=32 / chroma_me=1 / trellis=2 / 8x8dct=1 / cqm=0 / deadzone=21,11 / fast_pskip=0 / chroma_qp_offset=-2 / threads=24 / lookahead_threads=4 / sliced_threads=0 / nr=0 / decimate=0 / interlaced=0 / bluray_compat=0 / constrained_intra=0 / bframes=8 / b_pyramid=2 / b_adapt=2 / b_bias=0 / direct=3 / weightb=1 / open_gop=0 / weightp=2 / keyint=250 / keyint_min=23 / scenecut=40 / intra_refresh=0 / rc=crf / mbtree=0 / crf=19.0 / qcomp=0.60 / qpmin=0 / qpmax=69 / qpstep=4 / ip_ratio=1.40 / pb_ratio=1.30 / aq=3:1.00
Language         : English
Default          : Yes
Forced       : No
Color range      : Limited
Matrix coefficients      : BT.709

Audio
ID           : 2
Format       : FLAC
Format/Info      : Free Lossless Audio Codec
Codec ID         : A_FLAC
Duration         : 2 h 0 min
Bit rate mode        : Variable
Bit rate         : 615 kb/s
Channel(s)       : 2 channels
Channel layout       : L R
Sampling rate        : 48.0 kHz
Frame rate       : 11.719 FPS (4096 SPF)
Bit depth        : 16 bits
Compression mode     : Lossless
Stream size      : 529 MiB (3%)
Title        : Japanese
Writing library      : libFLAC 1.3.3 (UTC 2019-08-04)
Language         : Japanese
Default          : Yes
Forced       : No

Text #1
ID           : 3
Format       : UTF-8
Codec ID         : S_TEXT/UTF8
Codec ID/Info        : UTF-8 Plain Text
Duration         : 1 h 59 min
Bit rate         : 39 b/s
Count of elements        : 1091
Stream size      : 34.2 KiB (0%)
Title        : English Forced
Language         : English
Default          : Yes
Forced       : Yes

Text #2
ID           : 4
Format       : PGS
Muxing mode      : zlib
Codec ID         : S_HDMV/PGS
Codec ID/Info        : Picture based subtitle format used on BDs/HD-DVDs
Duration         : 1 h 59 min
Bit rate         : 23.8 kb/s
Count of elements        : 1764
Stream size      : 20.3 MiB (0%)
Title        : English Forced PGS
Language         : English
Default          : No
Forced       : No

Menu
00:00:00.000         : :Chapter 01
00:04:58.048         : :Chapter 02
00:06:00.694         : :Chapter 03
00:12:12.273         : :Chapter 04
00:15:26.425         : :Chapter 05
00:23:38.917         : :Chapter 06
00:30:32.706         : :Chapter 07
00:46:19.860         : :Chapter 08
00:57:45.629         : :Chapter 09
01:06:35.658         : :Chapter 10
01:14:44.438         : :Chapter 11
01:25:33.295         : :Chapter 12
01:37:11.409         : :Chapter 13
01:42:24.096         : :Chapter 14
01:52:05.677         : :Chapter 15
01:56:01.121         : :Chapter 16
01:59:09.142         : :Chapter 17



Screenshots:
悠悠MP4_MP4电影下载_亚里安 Arion.1986.1080p.BluRay.x264-HAiKU 16.53 GB
A haiku for you;
We love anime
We want to release it all
We hope you enjoy

Details for Arion.1986.1080p.BluRay.x264-HAiKU:

Duration : 2h 0mn
Video    : 1916x1080 @ crf19 19045kb/s 23.976fps (Source: 37746kbps)
Audio    : Japanese 615kb/s 2ch FLAC
File Size: 16923.21mb
Subtitles: English
IMDB     : https://www.imdb.com/title/tt0090658
Info     : The story follows Arion, a young man kidnapped by Hades
as a child and raised to believe that his mother was blinded
by Zeus and that killing the ruler of Mount Olympus will cure her.

L O O K I N G    F O R

* 100mbit+ sites for exclusive group use
* 100mbit+ dedicated (anime) archives
* retail suppliers from au/ca/jp/uk/us
* crunchyroll/funimation rippers

磁力链接

magnet:?xt=urn:btih:0f06baffcb905785c3a0f852ba40d4ed97a6c114

上传的附件:
最新回复 (0)
返回
本站所有资源均收集自互联网,没有提供影片资源存储, 也未参与录制、上传,若本站收录的资源无意侵犯了您的权益, 请联系邮箱:gogoimgs#gmail.com(#[email protected])