[2021] [欧美] [动作] [x264-1080P] Haymaker Haymaker.2021.1080p.AMZN.WEBRip.DDP5.1.x264-THR 5.63 GB

uump4 1月前

悠悠MP4_MP4电影下载_Haymaker Haymaker.2021.1080p.AMZN.WEBRip.DDP5.1.x264-THR 5.63 GB

◎片  名 Haymaker
◎年  代 2021
◎产  地 美国
◎类  别 剧情 / 动作
◎语  言 英语
◎上映日期 2021-01-29(美国)
◎IMDb评分  3.9/10 from 275 users
◎IMDb链接  https://www.imdb.com/title/tt6736300/
◎豆瓣评分 /10 from 0 users
◎豆瓣链接 https://movie.douban.com/subject/35594937/
◎片  长 83分钟
◎导  演 
◎编  剧 
◎主  演 爱丽儿·阿什 Ariel Ash
       佐伊·贝尔 Zoe Bell
       维罗尼卡·法尔孔 Veronica Falcón

◎简  介

  Haymaker follows a retired Muay Thai fighter (Sasso) working as a bouncer, who rescues an alluring transgender performer (Ruiz) from a nefarious thug, eventually becoming her bodyguard, protector, and confidant. The relationship leads Sasso's character to make an unexpected return to fighting, risking not only his relationship, but his life. Its a story about human dignity and love.



Video
ID           : 1
Format       : AVC
Format/Info      : Advanced Video Codec
Format profile       : [email protected]
Format settings      : CABAC / 4 Ref Frames
Format settings, CABAC       : Yes
Format settings, Reference frames    : 4 frames
Codec ID         : V_MPEG4/ISO/AVC
Duration         : 1 h 23 min
Bit rate mode        : Constant
Bit rate         : 9 050 kb/s
Nominal bit rate     : 10 000 kb/s
Width        : 1 920 pixels
Height       : 1 040 pixels
Display aspect ratio     : 1.85:1
Frame rate mode      : Constant
Frame rate       : 23.976 (24000/1001) FPS
Color space      : YUV
Chroma subsampling       : 4:2:0
Bit depth        : 8 bits
Scan type        : Progressive
Bits/(Pixel*Frame)       : 0.189
Stream size      : 5.26 GiB (93%)
Default          : Yes
Forced       : No
Color range      : Limited
Color primaries      : BT.709
Transfer characteristics     : BT.709
Matrix coefficients      : BT.709

Audio
ID           : 2
Format       : E-AC-3
Format/Info      : Enhanced AC-3
Commercial name      : Dolby Digital Plus
Codec ID         : A_EAC3
Duration         : 1 h 23 min
Bit rate mode        : Constant
Bit rate         : 640 kb/s
Channel(s)       : 6 channels
Channel layout       : L R C LFE Ls Rs
Sampling rate        : 48.0 kHz
Frame rate       : 31.250 FPS (1536 SPF)
Compression mode     : Lossy
Stream size      : 381 MiB (7%)
Language         : English
Service kind         : Complete Main
Default          : Yes
Forced       : No

Text
ID           : 3
Format       : UTF-8
Codec ID         : S_TEXT/UTF8
Codec ID/Info        : UTF-8 Plain Text
Duration         : 1 h 15 min
Bit rate         : 30 b/s
Count of elements        : 674
Stream size      : 16.9 KiB (0%)
Language         : English
Default          : No
Forced       : No



悠悠MP4_MP4电影下载_Haymaker Haymaker.2021.1080p.AMZN.WEBRip.DDP5.1.x264-THR 5.63 GB
悠悠MP4_MP4电影下载_Haymaker Haymaker.2021.1080p.AMZN.WEBRip.DDP5.1.x264-THR 5.63 GB
悠悠MP4_MP4电影下载_Haymaker Haymaker.2021.1080p.AMZN.WEBRip.DDP5.1.x264-THR 5.63 GB

磁力链接

magnet:?xt=urn:btih:d3193d242104cb159edbd6feb4a4a179e8b26f67

上传的附件:
最新回复 (0)
返回
本站所有资源均收集自互联网,没有提供影片资源存储, 也未参与录制、上传,若本站收录的资源无意侵犯了您的权益, 请联系邮箱:gogoimgs#gmail.com(#[email protected])