[更早] [欧美] [爱情] [x265-1080P] 乞力马扎罗的雪 The.Snows.of.Kilimanjaro.1952.1080p.WEBRip.x265-RARBG 1.77 GB

uump4 1月前

悠悠MP4_MP4电影下载_乞力马扎罗的雪 The.Snows.of.Kilimanjaro.1952.1080p.WEBRip.x265-RARBG 1.77 GB

◎片  名 乞力马扎罗的雪 The Snows of Kilimanjaro / 雪山盟(港/台)
◎年  代 1952
◎产  地 美国
◎类  别 剧情 / 爱情 / 冒险
◎语  言 英语 / 法语 / 西班牙语
◎上映日期 1952-08-18
◎IMDb评分  6.1/10 from 5270 users
◎IMDb链接  https://www.imdb.com/title/tt0045162/
◎豆瓣评分 7.7/10 from 2804 users
◎豆瓣链接 https://movie.douban.com/subject/1291874/
◎片  长 114分钟
◎导  演 亨利·金 Henry King
◎编  剧 凯西·罗宾逊 Casey Robinson
       欧内斯特·海明威 Ernest Hemingway
◎主  演 格利高里·派克 Gregory Peck
       苏珊·海沃德 Susan Hayward
       艾娃·加德纳 Ava Gardner
       海蒂嘉德·纳福 Hildegard Knef
       里奥.G.卡罗尔 Leo G. Carroll
       托林·撒切尔 Torin Thatcher
       海伦·斯坦利 Helene Stanley
       马塞尔·达里奥 Marcel Dalio
       维森特·戈麦斯 Vicente Gómez
       理查德·艾伦 Richard Allan
       伯特·弗里德 Bert Freed
       查尔斯·贝茨 Charles Bates

◎简  介

  在非洲最高峰——乞力马扎罗山,白雪皑皑中有一具豹的尸体,它在寻找什么?                                    
      Harry(格利高里·派克 Gregory Peck 饰)是一位作家,现今带着叔叔的这个谜语在乞力马扎罗山下养伤,身边有新婚妻子Helen(苏珊·海沃德 Susan Hayward 饰)悉心照顾。Harry被病痛折磨着整日陷入幻觉,回忆起自己的一生。                                    
      当初年轻的他一心要成为作家,他的叔叔告诉他作家要有坚韧的毅力,还要经历坚信漫长的岁月。而Harry刚与新婚不久的妻子Cynthia(艾娃·加德纳 Ava Gardner 饰)定居巴黎,年少不安定的他并没有安守于家,四处外出找寻写作见闻,深爱他的Cynthia连流产都没有告诉他,以免他自责。当他知道真相后反而对Cynthia横加指责,Cynthia伤心离去。失去Cynthia的Harry结识了Countess Liz——上流社会的女公爵,日日沉迷在纸醉金迷的生活里迷失了自我。当他偶有所感时叔叔已经去世,而且留下谜语让他去追寻答案,更从中寻找自我。这时于巴黎中他遇见了与Cynthia有着一副面孔的Helen,这时的Harry已经筋疲力尽,Helen虽然知道Harry爱的不是自己,仍然一往情深。她伴着他来到乞力马扎罗山下,一同寻找人生的答案。

◎获奖情况

  第25届奥斯卡金像奖 (1953)
  彩色片最佳摄影(提名)
  利昂·沙姆洛伊彩色片最佳艺术指导和布景(提名)
  莱尔·R·惠勒 / 托马斯·利特尔 / 保罗·S·福克斯 / 约翰·德奎尔



Video
ID           : 1
Format       : HEVC
Format/Info      : High Efficiency Video Coding
Format profile       : Main [email protected]@Main
Codec ID         : hev1
Codec ID/Info        : High Efficiency Video Coding
Duration         : 1 h 53 min
Bit rate         : 2 001 kb/s
Width        : 1 440 pixels
Height       : 1 080 pixels
Display aspect ratio     : 4:3
Frame rate mode      : Constant
Frame rate       : 23.976 (24000/1001) FPS
Color space      : YUV
Chroma subsampling       : 4:2:0
Bit depth        : 10 bits
Bits/(Pixel*Frame)       : 0.054
Stream size      : 1.59 GiB (90%)
Writing library      : x265 3.3+4-rarbg-30eb4de83092:[Linux][GCC 8.3.1][64 bit] 10bit
Encoding settings        : cpuid=1111039 / frame-threads=4 / wpp / no-pmode / no-pme / no-psnr / no-ssim / log-level=2 / input-csp=1 / input-res=1440x1080 / interlace=0 / total-frames=0 / level-idc=0 / high-tier=1 / uhd-bd=0 / ref=4 / no-allow-non-conformance / no-repeat-headers / annexb / no-aud / no-hrd / info / hash=0 / no-temporal-layers / open-gop / min-keyint=23 / keyint=250 / gop-lookahead=0 / bframes=4 / b-adapt=2 / b-pyramid / bframe-bias=0 / rc-lookahead=25 / lookahead-slices=4 / scenecut=40 / hist-scenecut=0 / radl=0 / no-splice / no-intra-refresh / ctu=64 / min-cu-size=8 / rect / no-amp / max-tu-size=32 / tu-inter-depth=1 / tu-intra-depth=1 / limit-tu=0 / rdoq-level=2 / dynamic-rd=0.00 / no-ssim-rd / signhide / no-tskip / nr-intra=0 / nr-inter=0 / no-constrained-intra / strong-intra-smoothing / max-merge=3 / limit-refs=3 / limit-modes / me=3 / subme=3 / merange=57 / temporal-mvp / no-frame-dup / no-hme / weightp / no-weightb / no-analyze-src-pics / deblock=0:0 / no-sao / no-sao-non-deblock / rd=4 / selective-sao=0 / no-early-skip / rskip / no-fast-intra / no-tskip-fast / no-cu-lossless / no-b-intra / no-splitrd-skip / rdpenalty=0 / psy-rd=2.00 / psy-rdoq=1.00 / no-rd-refine / no-lossless / cbqpoffs=0 / crqpoffs=0 / rc=abr / bitrate=2000 / qcomp=0.60 / qpstep=4 / stats-write=0 / stats-read=2 / cplxblur=20.0 / qblur=0.5 / ipratio=1.40 / pbratio=1.30 / aq-mode=3 / aq-strength=1.00 / cutree / zone-count=0 / no-strict-cbr / qg-size=32 / no-rc-grain / qpmax=69 / qpmin=0 / no-const-vbv / sar=1 / overscan=0 / videoformat=5 / range=0 / colorprim=2 / transfer=2 / colormatrix=2 / chromaloc=0 / display-window=0 / cll=0,0 / min-luma=0 / max-luma=1023 / log2-max-poc-lsb=8 / vui-timing-info / vui-hrd-info / slices=1 / no-opt-qp-pps / no-opt-ref-list-length-pps / no-multi-pass-opt-rps / scenecut-bias=0.05 / hist-threshold=0.01 / no-opt-cu-delta-qp / no-aq-motion / no-hdr10 / no-hdr10-opt / no-dhdr10-opt / no-idr-recovery-sei / analysis-reuse-level=0 / analysis-save-reuse-level=0 / analysis-load-reuse-level=0 / scale-factor=0 / refine-intra=0 / refine-inter=0 / refine-mv=1 / refine-ctu-distortion=0 / no-limit-sao / ctu-info=0 / no-lowpass-dct / refine-analysis-type=0 / copy-pic=1 / max-ausize-factor=1.0 / no-dynamic-refine / no-single-sei / no-hevc-aq / no-svt / no-field / qp-adaptation-range=1.00 / no-scenecut-aware-qpconformance-window-offsets / right=0 / bottom=0
Encoded date         : UTC 2022-07-02 15:08:42
Tagged date      : UTC 2022-07-02 15:08:42
Codec configuration box      : hvcC

Audio
ID           : 2
Format       : AAC LC
Format/Info      : Advanced Audio Codec Low Complexity
Codec ID         : mp4a-40-2
Duration         : 1 h 53 min
Bit rate mode        : Constant
Bit rate         : 224 kb/s
Channel(s)       : 2 channels
Channel layout       : L R
Sampling rate        : 48.0 kHz
Frame rate       : 46.875 FPS (1024 SPF)
Compression mode     : Lossy
Stream size      : 182 MiB (10%)
Language         : English
Default          : Yes
Alternate group      : 1
Encoded date         : UTC 2022-07-02 15:08:42
Tagged date      : UTC 2022-07-02 15:08:42



悠悠MP4_MP4电影下载_乞力马扎罗的雪 The.Snows.of.Kilimanjaro.1952.1080p.WEBRip.x265-RARBG 1.77 GB
悠悠MP4_MP4电影下载_乞力马扎罗的雪 The.Snows.of.Kilimanjaro.1952.1080p.WEBRip.x265-RARBG 1.77 GB
悠悠MP4_MP4电影下载_乞力马扎罗的雪 The.Snows.of.Kilimanjaro.1952.1080p.WEBRip.x265-RARBG 1.77 GB

磁力链接

magnet:?xt=urn:btih:f14ca0c0cdff1135a4e4346bff83418dc4cbc61c

上传的附件:
最新回复 (0)
返回
本站所有资源均收集自互联网,没有提供影片资源存储, 也未参与录制、上传,若本站收录的资源无意侵犯了您的权益, 请联系邮箱:gogoimgs#gmail.com(#[email protected])