[2008] [日本] [动画] [x264-720P] 空之境界 第四章 伽蓝之洞 The.Garden.of.Sinners.The.Hollow.Shrine.2008.720p.BluRay.x264-HAiKU 1.83 GB

uump4 1月前

悠悠MP4_MP4电影下载_空之境界 第四章 伽蓝之洞 The.Garden.of.Sinners.The.Hollow.Shrine.2008.720p.BluRay.x264-HAiKU 1.83 GB

◎片  名 空之境界 第四章 伽蓝之洞 劇場版 空の境界 第四章 伽藍の洞 / 空之境界电影版4:伽蓝之洞 / Gekijô ban Kara no kyôkai: Dai yon shô - Garan no dô
◎年  代 2008
◎产  地 日本
◎类  别 动画
◎语  言 日语
◎上映日期 2008-05-24
◎IMDb评分  7.1/10 from 1553 users
◎IMDb链接  https://www.imdb.com/title/tt1233474/
◎豆瓣评分 8.8/10 from 19467 users
◎豆瓣链接 https://movie.douban.com/subject/3077701/
◎片  长 45分钟
◎导  演 
◎编  剧 奈须蘑菇 Kinoko Nasu
◎主  演 坂本真绫 Maaya Sakamoto
       铃村健一 Kenichi Suzumura
       本田贵子 Takako Honda
       藤村步 Ayumi Fujimura
       东地宏树 Hiroki Touchi
       中田让治 Jôji Nakata
       井口裕香 Yuka Iguchi
       石上裕一 Ishigami Yuuichi
       田中理惠 Rie Tanaka
       能登麻美子 Mamiko Noto
       保志总一朗 Soichiro Hoshi

◎简  介

  1998年06月,意外事故后昏睡两年的两仪式苏醒了。                                    
      18年的记忆没有了,两仪织的人格也代替两仪式死去了。只有名为“黑桐干也”的男子守护在自己的身边。还有眼前奇怪的现象。两仪式获得了直视万物死之线的异形之力“直死之眼”。                                    
      黑桐干也的上司,苍崎橙子,来到医院接触两仪式,教导她“直死之眼”的使用方法。医院突然遭到袭击,式手握匕首,跨出了2年来,最坚毅的一步。                                    
      日本同人小说最高境界《空之境界》全七章动画化,本作为第四章电影版。



Video
ID           : 1
Format       : AVC
Format/Info      : Advanced Video Codec
Format profile       : [email protected]
Format settings      : CABAC / 9 Ref Frames
Format settings, CABAC       : Yes
Format settings, Reference frames    : 9 frames
Codec ID         : V_MPEG4/ISO/AVC
Duration         : 45 min 21 s
Bit rate         : 2 277 kb/s
Width        : 1 280 pixels
Height       : 720 pixels
Display aspect ratio     : 16:9
Frame rate mode      : Constant
Frame rate       : 23.976 (24000/1001) FPS
Color space      : YUV
Chroma subsampling       : 4:2:0
Bit depth        : 8 bits
Scan type        : Progressive
Bits/(Pixel*Frame)       : 0.103
Stream size      : 739 MiB (39%)
Writing library      : x264 core 164 r3094 bfc87b7
Encoding settings        : cabac=1 / ref=9 / deblock=1:1:1 / analyse=0x3:0x133 / me=umh / subme=10 / psy=1 / psy_rd=0.40:0.00 / mixed_ref=1 / me_range=24 / chroma_me=1 / trellis=2 / 8x8dct=1 / cqm=0 / deadzone=21,11 / fast_pskip=1 / chroma_qp_offset=-2 / threads=22 / lookahead_threads=5 / sliced_threads=0 / nr=0 / decimate=1 / interlaced=0 / bluray_compat=0 / constrained_intra=0 / bframes=10 / b_pyramid=2 / b_adapt=2 / b_bias=0 / direct=3 / weightb=1 / open_gop=0 / weightp=2 / keyint=250 / keyint_min=23 / scenecut=40 / intra_refresh=0 / rc_lookahead=60 / rc=crf / mbtree=1 / crf=15.0 / qcomp=0.60 / qpmin=0 / qpmax=69 / qpstep=4 / ip_ratio=1.40 / aq=3:1.10
Language         : English
Default          : Yes
Forced       : No
Color range      : Limited
Matrix coefficients      : BT.709

Audio
ID           : 2
Format       : FLAC
Format/Info      : Free Lossless Audio Codec
Codec ID         : A_FLAC
Duration         : 45 min 21 s
Bit rate mode        : Variable
Bit rate         : 3 375 kb/s
Channel(s)       : 6 channels
Channel layout       : L R C LFE Ls Rs
Sampling rate        : 48.0 kHz
Frame rate       : 11.719 FPS (4096 SPF)
Bit depth        : 24 bits
Compression mode     : Lossless
Stream size      : 1.07 GiB (58%)
Writing library      : libFLAC 1.2.1 (UTC 2007-09-17)
Language         : Japanese
Default          : Yes
Forced       : No

Text #1
ID           : 3
Format       : UTF-8
Codec ID         : S_TEXT/UTF8
Codec ID/Info        : UTF-8 Plain Text
Duration         : 44 min 49 s
Bit rate         : 39 b/s
Count of elements        : 401
Stream size      : 12.9 KiB (0%)
Title        : English
Language         : English
Default          : Yes
Forced       : Yes

Text #2
ID           : 4
Format       : PGS
Muxing mode      : zlib
Codec ID         : S_HDMV/PGS
Codec ID/Info        : Picture based subtitle format used on BDs/HD-DVDs
Duration         : 44 min 49 s
Bit rate         : 51.7 kb/s
Count of elements        : 2989
Stream size      : 16.6 MiB (1%)
Title        : English
Language         : English
Default          : No
Forced       : No

Text #3
ID           : 5
Format       : PGS
Muxing mode      : zlib
Codec ID         : S_HDMV/PGS
Codec ID/Info        : Picture based subtitle format used on BDs/HD-DVDs
Duration         : 44 min 20 s
Bit rate         : 72.6 kb/s
Count of elements        : 2796
Stream size      : 23.0 MiB (1%)
Title        : Japanese
Language         : Japanese
Default          : No
Forced       : No

Menu
00:00:00.000         : en:00:00:00.000
00:02:07.919         : en:00:02:07.919
00:03:47.227         : en:00:03:47.227
00:09:46.252         : en:00:09:46.252
00:14:20.318         : en:00:14:20.318
00:17:56.117         : en:00:17:56.117
00:25:43.792         : en:00:25:43.792
00:31:06.364         : en:00:31:06.364
00:35:52.150         : en:00:35:52.150
00:37:18.236         : en:00:37:18.236
00:42:22.248         : en:00:42:22.248
00:44:04.058         : en:00:44:04.058



Screenshots:
悠悠MP4_MP4电影下载_空之境界 第四章 伽蓝之洞 The.Garden.of.Sinners.The.Hollow.Shrine.2008.720p.BluRay.x264-HAiKU 1.83 GB
A haiku for you;
We love anime
We want to release it all
We hope you enjoy

Details for The.Garden.of.Sinners.The.Hollow.Shrine.2008.720p.BluRay.x264-HAiKU:

Duration : 45mn 21s
Video    : 1280x720 @ crf15.0 2277kb/s 23.976fps (source: 32441kb/s)
Audio1   : Japanese 3375kb/s 6ch FLAC
File Size: 1873.98mb
Subtitles: English, Japanese
IMDb     : https://www.imdb.com/title/tt1233474
Info     : June 1998: Shiki has had a near death experience. Awakening from
a coma, she has lost something very important to her, leaving a
great void in her soul. A void that some beings from the afterlife
want to take advantage of at any cost. But in contrast, she has
also received a new gift: she just needs someone to guide her with
her new power. Can she get that help in time? Can she fill the void
that overwhelms her?

L O O K I N G    F O R

* 100mbit+ sites for exclusive group use
* 100mbit+ dedicated (anime) archives
* retail suppliers from au/ca/jp/uk/us
* crunchyroll/funimation rippers

磁力链接

magnet:?xt=urn:btih:28bef75108be8a6fbb6e567979dbf2eaff4f0921

上传的附件:
最新回复 (0)
返回
本站所有资源均收集自互联网,没有提供影片资源存储, 也未参与录制、上传,若本站收录的资源无意侵犯了您的权益, 请联系邮箱:gogoimgs#gmail.com(#[email protected])