[2008] [日本] [动画] [x264-720P] 空之境界 第五章 矛盾螺旋 The.Garden.of.Sinners.Paradox.Paradigm.2008.720p.BluRay.x264-HAiKU 9.57 GB

uump4 1月前

悠悠MP4_MP4电影下载_空之境界 第五章 矛盾螺旋 The.Garden.of.Sinners.Paradox.Paradigm.2008.720p.BluRay.x264-HAiKU 9.57 GB

◎片  名 空之境界 第五章 矛盾螺旋 劇場版 空の境界 第五章 矛盾螺旋 / 空之境界电影版5:矛盾螺旋 / Gekijô ban Kara no kyôkai: Dai go shô - Mujun rasen
◎年  代 2008
◎产  地 日本
◎类  别 动画
◎语  言 日语
◎上映日期 2008-08-16
◎IMDb评分  8.0/10 from 1803 users
◎IMDb链接  https://www.imdb.com/title/tt1278060/
◎豆瓣评分 9.3/10 from 22886 users
◎豆瓣链接 https://movie.douban.com/subject/3187790/
◎片  长 113分钟
◎导  演 平尾隆之 Takayuki Hirao
◎编  剧 奈须蘑菇 Kinoko Nasu
◎主  演 坂本真绫 Maaya Sakamoto
       柿原彻也 Tetsuya Kakihara
       中田让治 Jôji Nakata
       游佐浩二 Koji Yusa
       五十岚裕美 Hiromi Igarashi
       山野井仁 Jin Yamanoi
       伊藤美纪 Miki Itô
       东地宏树 Hiroki Touchi
       藤村步 Ayumi Fujimura
       本田贵子 Takako Honda
       铃村健一 Kenichi Suzumura
       松尾大亮 Matsuo Daisuke

◎简  介

  “荒耶,你在追求什么?”“真正的睿智。”“在哪里追求?”“只在自己的心里。”                                    
      1998年11月,胭条巴遇到了两仪式并被她吸引。胭条巴每晚都做噩梦,自己犯下的罪行不断重现。两仪式为了调查事件的真相,前往胭条巴的寓所,却不知道,他们不知不觉已经进了敌人的圈套——复杂的“矛盾螺旋”。                                    
      而在这一切的背后,是名为荒耶宗莲的男子。他宿命的劲敌是魔术师苍崎橙子,最强的人偶师。伽藍堂全体出动,赌上性命的战斗即将开始。                                    
      日本同人小说最高境界《空之境界》全七章动画化,本作为第五章电影版。



Video
ID           : 1
Format       : AVC
Format/Info      : Advanced Video Codec
Format profile       : [email protected]
Format settings      : CABAC / 9 Ref Frames
Format settings, CABAC       : Yes
Format settings, Reference frames    : 9 frames
Codec ID         : V_MPEG4/ISO/AVC
Duration         : 1 h 53 min
Bit rate         : 8 395 kb/s
Width        : 1 280 pixels
Height       : 720 pixels
Display aspect ratio     : 16:9
Frame rate mode      : Constant
Frame rate       : 23.976 (24000/1001) FPS
Color space      : YUV
Chroma subsampling       : 4:2:0
Bit depth        : 8 bits
Scan type        : Progressive
Bits/(Pixel*Frame)       : 0.380
Stream size      : 6.68 GiB (70%)
Writing library      : x264 core 164 r3094 bfc87b7
Encoding settings        : cabac=1 / ref=9 / deblock=1:1:1 / analyse=0x3:0x133 / me=umh / subme=10 / psy=1 / psy_rd=0.40:0.00 / mixed_ref=1 / me_range=24 / chroma_me=1 / trellis=2 / 8x8dct=1 / cqm=0 / deadzone=21,11 / fast_pskip=1 / chroma_qp_offset=-2 / threads=22 / lookahead_threads=5 / sliced_threads=0 / nr=0 / decimate=1 / interlaced=0 / bluray_compat=0 / constrained_intra=0 / bframes=10 / b_pyramid=2 / b_adapt=2 / b_bias=0 / direct=3 / weightb=1 / open_gop=0 / weightp=2 / keyint=250 / keyint_min=23 / scenecut=40 / intra_refresh=0 / rc_lookahead=60 / rc=crf / mbtree=1 / crf=17.0 / qcomp=0.60 / qpmin=0 / qpmax=69 / qpstep=4 / ip_ratio=1.40 / aq=3:1.10
Language         : English
Default          : Yes
Forced       : No
Color range      : Limited
Matrix coefficients      : BT.709

Audio
ID           : 2
Format       : FLAC
Format/Info      : Free Lossless Audio Codec
Codec ID         : A_FLAC
Duration         : 1 h 53 min
Bit rate mode        : Variable
Bit rate         : 3 431 kb/s
Channel(s)       : 6 channels
Channel layout       : L R C LFE Ls Rs
Sampling rate        : 48.0 kHz
Frame rate       : 11.719 FPS (4096 SPF)
Bit depth        : 24 bits
Compression mode     : Lossless
Stream size      : 2.73 GiB (29%)
Writing library      : libFLAC 1.2.1 (UTC 2007-09-17)
Language         : Japanese
Default          : Yes
Forced       : No

Text #1
ID           : 3
Format       : UTF-8
Codec ID         : S_TEXT/UTF8
Codec ID/Info        : UTF-8 Plain Text
Duration         : 1 h 52 min
Bit rate         : 55 b/s
Count of elements        : 1240
Stream size      : 45.6 KiB (0%)
Title        : English
Language         : English
Default          : Yes
Forced       : Yes

Text #2
ID           : 4
Format       : PGS
Muxing mode      : zlib
Codec ID         : S_HDMV/PGS
Codec ID/Info        : Picture based subtitle format used on BDs/HD-DVDs
Duration         : 1 h 52 min
Bit rate         : 98.1 kb/s
Count of elements        : 9613
Stream size      : 79.2 MiB (1%)
Title        : English
Language         : English
Default          : No
Forced       : No

Text #3
ID           : 5
Format       : PGS
Muxing mode      : zlib
Codec ID         : S_HDMV/PGS
Codec ID/Info        : Picture based subtitle format used on BDs/HD-DVDs
Duration         : 1 h 52 min
Bit rate         : 104 kb/s
Count of elements        : 9568
Stream size      : 84.2 MiB (1%)
Title        : Japanese
Language         : Japanese
Default          : No
Forced       : No

Menu
00:00:00.000         : en:00:00:00.000
00:03:41.972         : en:00:03:41.972
00:06:17.711         : en:00:06:17.711
00:17:02.021         : en:00:17:02.021
00:24:00.147         : en:00:24:00.147
00:33:41.478         : en:00:33:41.478
00:41:47.046         : en:00:41:47.046
00:48:36.413         : en:00:48:36.413
00:57:29.154         : en:00:57:29.154
01:03:30.265         : en:01:03:30.265
01:06:19.309         : en:01:06:19.309
01:13:11.304         : en:01:13:11.304
01:18:10.102         : en:01:18:10.102
01:24:26.395         : en:01:24:26.395
01:35:51.788         : en:01:35:51.788
01:44:26.802         : en:01:44:26.802
01:46:05.693         : en:01:46:05.693
01:51:07.995         : en:01:51:07.995
01:52:31.745         : en:01:52:31.745



Screenshots:
悠悠MP4_MP4电影下载_空之境界 第五章 矛盾螺旋 The.Garden.of.Sinners.Paradox.Paradigm.2008.720p.BluRay.x264-HAiKU 9.57 GB
A haiku for you;
We love anime
We want to release it all
We hope you enjoy

Details for The.Garden.of.Sinners.Paradox.Paradigm.2008.720p.BluRay.x264-HAiKU:

Duration : 1h 53mn
Video    : 1280x720 @ crf17.0 8395kb/s 23.976fps (Source: 34467kb/s)
Audio1   : Japanese 3431kb/s 6ch FLAC
File Size: 9800.25mb
Subtitles: English, Japanese
IMDb     : https://www.imdb.com/title/tt1278060
Info     : A teenage demon hunter uses her mystical powers to investigate
supernatural events.

L O O K I N G    F O R

* 100mbit+ sites for exclusive group use
* 100mbit+ dedicated (anime) archives
* retail suppliers from au/ca/jp/uk/us
* crunchyroll/funimation rippers

磁力链接

magnet:?xt=urn:btih:baecedf6aba8b136d1e6df0180e000222efcf105

上传的附件:
最新回复 (0)
返回
本站所有资源均收集自互联网,没有提供影片资源存储, 也未参与录制、上传,若本站收录的资源无意侵犯了您的权益, 请联系邮箱:gogoimgs#gmail.com(#[email protected])